  0
SECTION
  2
HEADER
  9
$ACADVER
  1
AC1009
  9
$INSBASE
 10
0.0
 20
0.0
 30
0.0
  9
$EXTMIN
 10
-1.7738298380863851
 20
-1.1031808211555469
 30
-0.0000000000112498
  9
$EXTMAX
 10
42052.112172750269
 20
29762.896876123232
 30
0.0000000000002956
  9
$LIMMIN
 10
0.0
 20
0.0
  9
$LIMMAX
 10
420.0
 20
297.0
  9
$ORTHOMODE
 70
     1
  9
$REGENMODE
 70
     1
  9
$FILLMODE
 70
     1
  9
$QTEXTMODE
 70
     0
  9
$MIRRTEXT
 70
     1
  9
$DRAGMODE
 70
     2
  9
$LTSCALE
 40
100.0
  9
$OSMODE
 70
  3071
  9
$ATTMODE
 70
     1
  9
$TEXTSIZE
 40
500.0
  9
$TRACEWID
 40
1.0
  9
$TEXTSTYLE
  7
KANJI
  9
$CLAYER
  8
1
  9
$CELTYPE
  6
BYLAYER
  9
$CECOLOR
 62
   256
  9
$DIMSCALE
 40
1.0
  9
$DIMASZ
 40
2.5
  9
$DIMEXO
 40
0.625
  9
$DIMDLI
 40
3.75
  9
$DIMRND
 40
0.0
  9
$DIMDLE
 40
0.0
  9
$DIMEXE
 40
1.25
  9
$DIMTP
 40
0.0
  9
$DIMTM
 40
0.0
  9
$DIMTXT
 40
2.5
  9
$DIMCEN
 40
2.5
  9
$DIMTSZ
 40
0.0
  9
$DIMTOL
 70
     0
  9
$DIMLIM
 70
     0
  9
$DIMTIH
 70
     0
  9
$DIMTOH
 70
     0
  9
$DIMSE1
 70
     0
  9
$DIMSE2
 70
     0
  9
$DIMTAD
 70
     1
  9
$DIMZIN
 70
     8
  9
$DIMBLK
  1

  9
$DIMASO
 70
     1
  9
$DIMSHO
 70
     1
  9
$DIMPOST
  1

  9
$DIMAPOST
  1

  9
$DIMALT
 70
     0
  9
$DIMALTD
 70
     3
  9
$DIMALTF
 40
0.03937007874016
  9
$DIMLFAC
 40
1.0
  9
$DIMTOFL
 70
     1
  9
$DIMTVP
 40
0.0
  9
$DIMTIX
 70
     0
  9
$DIMSOXD
 70
     0
  9
$DIMSAH
 70
     0
  9
$DIMBLK1
  1

  9
$DIMBLK2
  1

  9
$DIMSTYLE
  2
ISO-25
  9
$DIMCLRD
 70
     0
  9
$DIMCLRE
 70
     0
  9
$DIMCLRT
 70
     0
  9
$DIMTFAC
 40
1.0
  9
$DIMGAP
 40
0.625
  9
$LUNITS
 70
     2
  9
$LUPREC
 70
     4
  9
$SKETCHINC
 40
1.0
  9
$FILLETRAD
 40
0.0
  9
$AUNITS
 70
     0
  9
$AUPREC
 70
     0
  9
$MENU
  1
.
  9
$ELEVATION
 40
0.0
  9
$PELEVATION
 40
0.0
  9
$THICKNESS
 40
0.0
  9
$LIMCHECK
 70
     0
  9
$BLIPMODE
 70
     0
  9
$CHAMFERA
 40
10.0
  9
$CHAMFERB
 40
10.0
  9
$SKPOLY
 70
     0
  9
$TDCREATE
 40
2451983.4934869329
  9
$TDUPDATE
 40
2451983.6952679278
  9
$TDINDWG
 40
0.1338517361
  9
$TDUSRTIMER
 40
0.1338516204
  9
$USRTIMER
 70
     1
  9
$ANGBASE
 50
0.0
  9
$ANGDIR
 70
     0
  9
$PDMODE
 70
     3
  9
$PDSIZE
 40
300.0
  9
$PLINEWID
 40
0.0
  9
$COORDS
 70
     1
  9
$SPLFRAME
 70
     0
  9
$SPLINETYPE
 70
     6
  9
$SPLINESEGS
 70
     8
  9
$ATTDIA
 70
     0
  9
$ATTREQ
 70
     1
  9
$HANDLING
 70
-16383
  9
$HANDSEED
  5
2360
  9
$SURFTAB1
 70
     6
  9
$SURFTAB2
 70
     6
  9
$SURFTYPE
 70
     6
  9
$SURFU
 70
     6
  9
$SURFV
 70
     6
  9
$UCSNAME
  2

  9
$UCSORG
 10
0.0
 20
0.0
 30
0.0
  9
$UCSXDIR
 10
1.0
 20
0.0
 30
0.0
  9
$UCSYDIR
 10
0.0
 20
1.0
 30
0.0
  9
$PUCSNAME
  2

  9
$PUCSORG
 10
0.0
 20
0.0
 30
0.0
  9
$PUCSXDIR
 10
1.0
 20
0.0
 30
0.0
  9
$PUCSYDIR
 10
0.0
 20
1.0
 30
0.0
  9
$USERI1
 70
     0
  9
$USERI2
 70
     0
  9
$USERI3
 70
     0
  9
$USERI4
 70
     0
  9
$USERI5
 70
     0
  9
$USERR1
 40
0.0
  9
$USERR2
 40
0.0
  9
$USERR3
 40
0.0
  9
$USERR4
 40
0.0
  9
$USERR5
 40
0.0
  9
$WORLDVIEW
 70
     1
  9
$SHADEDGE
 70
     3
  9
$SHADEDIF
 70
    70
  9
$TILEMODE
 70
     1
  9
$MAXACTVP
 70
    48
  9
$PLIMCHECK
 70
     0
  9
$PEXTMIN
 10
1.0000000000000000E+020
 20
1.0000000000000000E+020
 30
1.0000000000000000E+020
  9
$PEXTMAX
 10
-1.0000000000000000E+020
 20
-1.0000000000000000E+020
 30
-1.0000000000000000E+020
  9
$PLIMMIN
 10
0.0
 20
0.0
  9
$PLIMMAX
 10
420.0
 20
297.0
  9
$UNITMODE
 70
     0
  9
$VISRETAIN
 70
     1
  9
$PLINEGEN
 70
     0
  9
$PSLTSCALE
 70
     0
  0
ENDSEC
  0
SECTION
  2
TABLES
  0
TABLE
  2
VPORT
 70
     8
  0
VPORT
  2
*ACTIVE
 70
     0
 10
0.0
 20
0.0
 11
1.0
 21
1.0
 12
21025.169171456091
 22
14880.89684765104
 13
0.0
 23
0.0
 14
10.0
 24
10.0
 15
10.0
 25
10.0
 16
0.0
 26
0.0
 36
1.0
 17
0.0
 27
0.0
 37
0.0
 40
30109.423655284168
 41
1.8391472868217049
 42
50.0
 43
0.0
 44
0.0
 50
0.0
 51
0.0
 71
     0
 72
   100
 73
     1
 74
     3
 75
     0
 76
     0
 77
     0
 78
     0
  0
ENDTAB
  0
TABLE
  2
LTYPE
 70
     5
  0
LTYPE
  2
CONTINUOUS
 70
     0
  3
Solid line
 72
    65
 73
     0
 40
0.0
  0
LTYPE
  2
HIDDEN
 70
     0
  3
------------------------
 72
    65
 73
     2
 40
12.6
 49
8.4000000000000004
 49
-4.2000000000000002
  0
LTYPE
  2
DOT
 70
     0
  3
････････････････････････
 72
    65
 73
     2
 40
8.0
 49
6.0
 49
-2.0
  0
LTYPE
  2
DASHDOT
 70
     0
  3
--･--･--･--･--･--･--･--
 72
    65
 73
     4
 40
50.5
 49
30.0
 49
-9.0
 49
2.5
 49
-9.0
  0
LTYPE
  2
DIVIDE
 70
     0
  3
--･･--･･--･･--･･--･･--
 72
    65
 73
     6
 40
58.0
 49
30.0
 49
-9.0
 49
2.5
 49
-5.0
 49
2.5
 49
-9.0
  0
ENDTAB
  0
TABLE
  2
LAYER
 70
     8
  0
LAYER
  2
0
 70
     0
 62
     7
  6
CONTINUOUS
  0
LAYER
  2
1
 70
     0
 62
     7
  6
CONTINUOUS
  0
LAYER
  2
DEFPOINTS
 70
     0
 62
     7
  6
CONTINUOUS
  0
LAYER
  2
NORMAL
 70
     0
 62
     7
  6
CONTINUOUS
  0
LAYER
  2
非表示画層
 70
     0
 62
    -7
  6
CONTINUOUS
  0
LAYER
  2
フリーズ画層
 70
     1
 62
     7
  6
CONTINUOUS
  0
LAYER
  2
非表示かつフリーズ画層
 70
     1
 62
    -7
  6
CONTINUOUS
  0
LAYER
  2
ロックされた画層
 70
     4
 62
     7
  6
CONTINUOUS
  0
ENDTAB
  0
TABLE
  2
STYLE
 70
     5
  0
STYLE
  2
STANDARD
 70
     0
 40
300.0
 41
1.0
 50
0.0
 71
     0
 42
300.0
  3
txt.shx
  4

  0
STYLE
  2
KANJI
 70
     0
 40
500.0
 41
1.0
 50
0.0
 71
     0
 42
500.0
  3
TXT.shx
  4
BIGFONT.shx
  0
STYLE
  2
KANJI2
 70
     0
 40
500.0
 41
1.0
 50
0.0
 71
     0
 42
500.0
  3
txt.shx
  4

  0
STYLE
  2
KANJI4
 70
     0
 40
500.0
 41
1.0
 50
0.0
 71
     0
 42
500.0
  3
txt.shx
  4

  0
STYLE
  2
KANJI3
 70
     4
 40
500.0
 41
1.0
 50
0.0
 71
     0
 42
500.0
  3
TXT.shx
  4
BIGFONT.shx
  0
ENDTAB
  0
TABLE
  2
VIEW
 70
     0
  0
ENDTAB
  0
TABLE
  2
UCS
 70
     0
  0
ENDTAB
  0
TABLE
  2
APPID
 70
     2
  0
APPID
  2
ACAD
 70
     0
  0
APPID
  2
CONTENTBLOCKICON
 70
     0
  0
ENDTAB
  0
TABLE
  2
DIMSTYLE
 70
     2
  0
DIMSTYLE
  2
ISO-25
 70
     0
  3

  4

  5

  6

  7

 40
1.0
 41
2.5
 42
0.625
 43
3.75
 44
1.25
 45
0.0
 46
0.0
 47
0.0
 48
0.0
140
2.5
141
2.5
142
0.0
143
0.03937007874016
144
1.0
145
0.0
146
1.0
147
0.625
 71
     0
 72
     0
 73
     0
 74
     0
 75
     0
 76
     0
 77
     1
 78
     8
170
     0
171
     3
172
     1
173
     0
174
     0
175
     0
176
     0
177
     0
178
     0
  0
DIMSTYLE
  2
STANDARD
 70
     0
  3

  4

  5

  6

  7

 40
1.0
 41
0.18
 42
0.0625
 43
0.38
 44
0.18
 45
0.0
 46
0.0
 47
0.0
 48
0.0
140
0.18
141
0.09
142
0.0
143
25.399999999999999
144
1.0
145
0.0
146
1.0
147
0.09
 71
     0
 72
     0
 73
     1
 74
     1
 75
     0
 76
     0
 77
     0
 78
     0
170
     0
171
     2
172
     0
173
     0
174
     0
175
     0
176
     0
177
     0
178
     0
  0
ENDTAB
  0
ENDSEC
  0
SECTION
  2
BLOCKS
  0
BLOCK
  8
0
  2
$MODEL_SPACE
 70
     0
 10
0.0
 20
0.0
 30
0.0
  3
$MODEL_SPACE
  1

  0
ENDBLK
  5
21
  8
0
  0
BLOCK
 67
     1
  8
0
  2
$PAPER_SPACE
 70
     0
 10
0.0
 20
0.0
 30
0.0
  3
$PAPER_SPACE
  1

  0
ENDBLK
  5
1D
 67
     1
  8
0
  0
BLOCK
  8
1
  6
CONTINUOUS
 62
     7
  2
*U1
 70
     1
 10
0.0
 20
0.0
 30
0.0
  3
*U1
  1

  0
LINE
  5
2C
  8
1
  6
CONTINUOUS
 62
     7
 10
0.0
 20
29700.0
 30
0.0
 11
0.0
 21
0.0
 31
0.0
  0
LINE
  5
2D
  8
1
  6
CONTINUOUS
 62
     7
 10
0.0
 20
0.0
 30
0.0
 11
42000.0
 21
0.0
 31
0.0
  0
LINE
  5
2E
  8
1
  6
CONTINUOUS
 62
     7
 10
42000.0
 20
0.0
 30
0.0
 11
42000.0
 21
29700.0
 31
0.0
  0
LINE
  5
2F
  8
1
  6
CONTINUOUS
 62
     7
 10
42000.0
 20
29700.0
 30
0.0
 11
0.0
 21
29700.0
 31
0.0
  0
ENDBLK
  5
31
  8
0
  0
BLOCK
  8
0
  2
*D2
 70
     1
 10
0.0
 20
0.0
 30
0.0
  3
*D2
  1

  0
LINE
  5
171A
  8
0
 62
     0
 10
32797.788520342467
 20
20727.373204668042
 30
0.0
 11
32470.007095362369
 21
21055.154629646859
 31
0.0
  0
LINE
  5
171B
  8
0
 62
     0
 10
36333.322426275197
 20
24262.907110600769
 30
0.0
 11
36005.541001288249
 21
24590.688535586451
 31
0.0
  0
LINE
  5
171C
  8
0
 62
     0
 10
32735.172138307149
 20
21143.542977295689
 30
0.0
 11
35917.152653640449
 21
24325.523492641321
 31
0.0
  0
SOLID
  5
171D
  8
0
 62
     0
 10
32705.709355757652
 20
21173.00575984508
 30
0.0
 11
32764.63492085665
 21
21114.080194746311
 31
0.0
 12
32558.395443010861
 22
20966.766281998709
 32
0.0
 13
32558.395443010861
 23
20966.766281998709
 33
0.0
  0
SOLID
  5
171E
  8
0
 62
     0
 10
35887.689871090952
 20
24354.986275190699
 30
0.0
 11
35946.615436189939
 21
24296.060710091941
 31
0.0
 12
36093.929348936741
 22
24502.300187938301
 32
0.0
 13
36093.929348936741
 23
24502.300187938301
 33
0.0
  0
TEXT
  5
171F
  8
1
 62
     0
 10
33946.09250108659
 20
22442.851687728318
 30
0.0
 40
300.0
  1
5000
 50
45.000000000111051
  0
POINT
  5
1720
  8
DEFPOINTS
 62
     0
 10
32841.982694166712
 20
20683.179030843959
 30
0.0
  0
POINT
  5
1721
  8
DEFPOINTS
 62
     0
 10
36377.516600099443
 20
24218.712936776701
 30
0.0
  0
POINT
  5
1722
  8
DEFPOINTS
 62
     0
 10
36093.929348936741
 20
24502.300187938301
 30
0.0
  0
ENDBLK
  5
2B6
  8
0
  0
BLOCK
  8
0
  2
*D3
 70
     1
 10
0.0
 20
0.0
 30
0.0
  3
*D3
  1

  0
LINE
  5
1723
  8
0
 62
     0
 10
32797.788520342467
 20
20638.984857019888
 30
0.0
 11
32123.26971235923
 21
19964.466049039282
 31
0.0
  0
LINE
  5
1724
  8
0
 62
     0
 10
33858.4486921223
 20
19578.32468524007
 30
0.0
 11
33183.929884137011
 21
18903.8058772574
 31
0.0
  0
LINE
  5
1725
  8
0
 62
     0
 10
32388.434755304021
 20
19876.077701390452
 30
0.0
 11
33095.541536489203
 21
19168.97092020253
 31
0.0
  0
SOLID
  5
1726
  8
0
 62
     0
 10
32417.897537853511
 20
19905.540483939829
 30
0.0
 11
32358.97197275452
 21
19846.614918841071
 31
0.0
 12
32211.658060007721
 22
20052.854396687431
 32
0.0
 13
32211.658060007721
 23
20052.854396687431
 33
0.0
  0
SOLID
  5
1727
  8
0
 62
     0
 10
33125.0043190387
 20
19198.43370275191
 30
0.0
 11
33066.078753939699
 21
19139.508137653142
 31
0.0
 12
33272.318231785503
 22
18992.19422490555
 32
0.0
 13
33272.318231785503
 23
18992.19422490555
 33
0.0
  0
TEXT
  5
1728
  8
1
 62
     0
 10
32467.98426818752
 20
19884.91653615512
 30
0.0
 40
300.0
  1
1500
 50
314.99999999988893
  0
POINT
  5
1729
  8
DEFPOINTS
 62
     0
 10
32841.982694166698
 20
20683.17903084397
 30
0.0
  0
POINT
  5
172A
  8
DEFPOINTS
 62
     0
 10
33902.642865946538
 20
19622.518859064141
 30
0.0
  0
POINT
  5
172B
  8
DEFPOINTS
 62
     0
 10
33272.318231785503
 20
18992.19422490555
 30
0.0
  0
ENDBLK
  5
2C3
  8
0
  0
BLOCK
  8
0
  2
*D4
 70
     1
 10
0.0
 20
0.0
 30
0.0
  3
*D4
  1

  0
LINE
  5
172C
  8
0
 62
     0
 10
34061.617553885691
 20
28525.654083678131
 30
0.0
 11
34061.617553885691
 21
28989.207020387759
 31
0.0
  0
LINE
  5
172D
  8
0
 62
     0
 10
39061.617553885691
 20
28525.654083678131
 30
0.0
 11
39061.617553885691
 21
28989.207020387759
 31
0.0
  0
LINE
  5
172E
  8
0
 62
     0
 10
34311.617553885691
 20
28864.207020387759
 30
0.0
 11
38811.617553885691
 21
28864.207020387759
 31
0.0
  0
SOLID
  5
172F
  8
0
 62
     0
 10
34311.617553885691
 20
28905.873687054431
 30
0.0
 11
34311.617553885691
 21
28822.540353721091
 31
0.0
 12
34061.617553885691
 22
28864.207020387759
 32
0.0
 13
34061.617553885691
 23
28864.207020387759
 33
0.0
  0
SOLID
  5
1730
  8
0
 62
     0
 10
38811.617553885691
 20
28905.873687054431
 30
0.0
 11
38811.617553885691
 21
28822.540353721091
 31
0.0
 12
39061.617553885691
 22
28864.207020387759
 32
0.0
 13
39061.617553885691
 23
28864.207020387759
 33
0.0
  0
TEXT
  5
1731
  8
1
 62
     0
 10
36086.617553885691
 20
28926.707020387759
 30
0.0
 40
300.0
  1
5000
  0
POINT
  5
1732
  8
DEFPOINTS
 62
     0
 10
34061.617553885691
 20
28463.154083678131
 30
0.0
  0
POINT
  5
1733
  8
DEFPOINTS
 62
     0
 10
39061.617553885691
 20
28463.154083678131
 30
0.0
  0
POINT
  5
1734
  8
DEFPOINTS
 62
     0
 10
39061.617553885691
 20
28864.207020387759
 30
0.0
  0
ENDBLK
  5
2D3
  8
0
  0
BLOCK
  8
0
  2
*D5
 70
     1
 10
0.0
 20
0.0
 30
0.0
  3
*D5
  1

  0
LINE
  5
1735
  8
0
 62
     0
 10
33999.117553885691
 20
28463.154083678131
 30
0.0
 11
33045.203907559007
 21
28463.154083678131
 31
0.0
  0
LINE
  5
1736
  8
0
 62
     0
 10
33999.117553885691
 20
26963.154083678131
 30
0.0
 11
33045.203907559007
 21
26963.154083678131
 31
0.0
  0
LINE
  5
1737
  8
0
 62
     0
 10
33170.203907559007
 20
28213.154083678131
 30
0.0
 11
33170.203907559007
 21
27213.154083678131
 31
0.0
  0
SOLID
  5
1738
  8
0
 62
     0
 10
33128.53724089235
 20
28213.154083678131
 30
0.0
 11
33211.870574225679
 21
28213.154083678131
 31
0.0
 12
33170.203907559007
 22
28463.154083678131
 32
0.0
 13
33170.203907559007
 23
28463.154083678131
 33
0.0
  0
SOLID
  5
1739
  8
0
 62
     0
 10
33128.53724089235
 20
27213.154083678131
 30
0.0
 11
33211.870574225679
 21
27213.154083678131
 31
0.0
 12
33170.203907559007
 22
26963.154083678131
 32
0.0
 13
33170.203907559007
 23
26963.154083678131
 33
0.0
  0
TEXT
  5
173A
  8
1
 62
     0
 10
33107.703907559
 20
27263.154083678131
 30
0.0
 40
300.0
  1
1500
 50
90.0
  0
POINT
  5
173B
  8
DEFPOINTS
 62
     0
 10
34061.617553885691
 20
28463.154083678131
 30
0.0
  0
POINT
  5
173C
  8
DEFPOINTS
 62
     0
 10
34061.617553885691
 20
26963.154083678131
 30
0.0
  0
POINT
  5
173D
  8
DEFPOINTS
 62
     0
 10
33170.203907559007
 20
26963.154083678131
 30
0.0
  0
ENDBLK
  5
2DF
  8
0
  0
BLOCK
  8
0
  2
*D6
 70
     1
 10
0.0
 20
0.0
 30
0.0
  3
*D6
  1

  0
ARC
  5
211C
  8
0
 62
     0
 10
33902.642865946531
 20
19622.518859064141
 30
0.0
 40
3643.198465986115
 50
3.9324667284677068
 51
41.067533271532312
  0
SOLID
  5
211D
  8
0
 62
     0
 10
37578.905838466562
 20
19873.801268951469
 30
0.0
 11
37495.621570041811
 21
19870.942059725308
 31
0.0
 12
37545.84133193265
 22
19622.518859064148
 32
0.0
 13
37545.84133193265
 23
19622.518859064148
 33
0.0
  0
SOLID
  5
211E
  8
0
 62
     0
 10
36618.924202062743
 20
21987.476735597189
 30
0.0
 11
36679.836839264681
 21
22044.345840333841
 31
0.0
 12
36478.773206453741
 22
22198.649199571359
 32
0.0
 13
36478.773206453741
 23
22198.649199571359
 33
0.0
  0
TEXT
  8
0
  40
300
  5
217B
  62
0
  72
0
  71
0
 10
37464.8
 20
20708.0
 30
0.000000
  1
45°
  0
POINT
  5
2120
  8
DEFPOINTS
 62
     0
 10
37421.702354539237
 20
20565.44800714964
 30
0.0
  0
POINT
  5
2121
  8
DEFPOINTS
 62
     0
 10
37438.176771879283
 20
23158.05276499689
 30
0.0
  0
POINT
  5
2122
  8
DEFPOINTS
 62
     0
 10
33902.642865946531
 20
19622.518859064141
 30
0.0
  0
POINT
  5
2123
  8
DEFPOINTS
 62
     0
 10
37726.652160292273
 20
19622.518859064148
 30
0.0
  0
POINT
  5
2124
  8
DEFPOINTS
 62
     0
 10
33902.642865946531
 20
19622.518859064141
 30
0.0
  0
ENDBLK
  5
335
  8
0
  0
BLOCK
  8
0
  2
*D7
 70
     1
 10
0.0
 20
0.0
 30
0.0
  3
*D7
  1

  0
LINE
  5
1747
  8
0
 62
     0
 10
33971.719636084497
 20
18916.487506715672
 30
0.0
 11
33971.719636084497
 21
17291.487506715672
 31
0.0
  0
LINE
  5
1748
  8
0
 62
     0
 10
33971.719636084497
 20
12791.48750671567
 30
0.0
 11
33971.719636084497
 21
12541.48750671567
 31
0.0
  0
TEXT
  5
1749
  8
1
 62
     0
 10
33909.21963608449
 20
17603.987506715672
 30
0.0
 40
300.0
  1
\U+22054000
 50
90.0
  0
LINE
  5
174A
  8
0
 62
     0
 10
33971.719636084497
 20
13041.48750671567
 30
0.0
 11
33971.719636084497
 21
17041.487506715672
 31
0.0
  0
SOLID
  5
174B
  8
0
 62
     0
 10
33930.05296941784
 20
12791.48750671567
 30
0.0
 11
34013.386302751162
 21
12791.48750671567
 31
0.0
 12
33971.719636084497
 22
13041.48750671567
 32
0.0
 13
33971.719636084497
 23
13041.48750671567
 33
0.0
  0
SOLID
  5
174C
  8
0
 62
     0
 10
33930.05296941784
 20
17291.487506715672
 30
0.0
 11
34013.386302751162
 21
17291.487506715672
 31
0.0
 12
33971.719636084497
 22
17041.487506715672
 32
0.0
 13
33971.719636084497
 23
17041.487506715672
 33
0.0
  0
POINT
  5
174D
  8
DEFPOINTS
 62
     0
 10
33971.719636084497
 20
17041.487506715672
 30
0.0
  0
POINT
  5
174E
  8
DEFPOINTS
 62
     0
 10
33971.719636084497
 20
13041.48750671567
 30
0.0
  0
ENDBLK
  5
37B
  8
0
  0
BLOCK
  8
0
  2
*D8
 70
     1
 10
0.0
 20
0.0
 30
0.0
  3
*D8
  1

  0
LINE
  5
174F
  8
0
 62
     0
 10
37235.06246344516
 20
17131.037360419479
 30
0.0
 11
35866.563858422953
 21
16254.774518543691
 31
0.0
  0
TEXT
  5
1750
  8
1
 62
     0
 10
36096.034250085853
 20
16475.921165251431
 30
0.0
 40
300.0
  1
R2000
 50
32.631826972857269
  0
LINE
  5
1751
  8
0
 62
     0
 10
33971.719636084512
 20
15041.48750671567
 30
0.0
 11
35656.025611496458
 21
16119.964850562799
 31
0.0
  0
SOLID
  5
1752
  8
0
 62
     0
 10
35844.095580426139
 20
16289.864226364771
 30
0.0
 11
35889.032136419759
 21
16219.6848107226
 31
0.0
 12
35656.025611496458
 22
16119.964850562799
 32
0.0
 13
35656.025611496458
 23
16119.964850562799
 33
0.0
  0
POINT
  5
1753
  8
DEFPOINTS
 62
     0
 10
35656.025611496458
 20
16119.964850562799
 30
0.0
  0
POINT
  5
1754
  8
DEFPOINTS
 62
     0
 10
33971.719636084512
 20
15041.48750671567
 30
0.0
  0
ENDBLK
  5
385
  8
0
  0
BLOCK
  8
0
  2
NONAME
 70
     0
 10
0.0
 20
0.0
 30
0.0
  3
NONAME
  1

  0
LINE
  5
747
  8
0
 10
24339.43845972023
 20
5012.4925338925459
 30
0.0
 11
21839.43845972023
 21
9342.6195528147382
 31
0.0
  0
LINE
  5
748
  8
0
 10
24339.43845972023
 20
5012.4925338925459
 30
0.0
 11
19339.43845972023
 21
5012.4925338925468
 31
0.0
  0
LINE
  5
749
  8
0
 10
19339.43845972023
 20
8260.0877980841906
 30
0.0
 11
24339.43845972023
 21
8260.0877980841906
 31
0.0
  0
LINE
  5
74A
  8
0
 10
19339.43845972023
 20
8260.0877980841906
 30
0.0
 11
21839.43845972023
 21
3929.9607791620001
 31
0.0
  0
LINE
  5
74B
  8
0
 10
24339.43845972023
 20
8260.0877980841906
 30
0.0
 11
21839.43845972023
 21
3929.9607791620001
 31
0.0
  0
LINE
  5
74C
  8
0
 10
19339.43845972023
 20
5012.4925338925468
 30
0.0
 11
21839.43845972023
 21
9342.6195528147382
 31
0.0
  0
ENDBLK
  5
746
  8
0
  0
BLOCK
  8
0
  2
*D10
 70
     1
 10
0.0
 20
0.0
 30
0.0
  3
*D10
  1

  0
LINE
  5
1755
  8
0
 62
     0
 10
834.83167002764822
 20
3454.385493772555
 30
0.0
 11
834.83167002764822
 21
4448.3548996505697
 31
0.0
  0
LINE
  5
1756
  8
0
 62
     0
 10
3334.8316700276482
 20
3454.385493772555
 30
0.0
 11
3334.8316700276482
 21
4448.3548996505697
 31
0.0
  0
LINE
  5
1757
  8
0
 62
     0
 10
1084.831670027648
 20
4323.3548996505697
 30
0.0
 11
3084.8316700276482
 21
4323.3548996505697
 31
0.0
  0
SOLID
  5
1758
  8
0
 62
     0
 10
1084.831670027648
 20
4365.0215663172376
 30
0.0
 11
1084.831670027648
 21
4281.6882329839036
 31
0.0
 12
834.83167002764822
 22
4323.3548996505697
 32
0.0
 13
834.83167002764822
 23
4323.3548996505697
 33
0.0
  0
SOLID
  5
1759
  8
0
 62
     0
 10
3084.8316700276482
 20
4365.0215663172376
 30
0.0
 11
3084.8316700276482
 21
4281.6882329839036
 31
0.0
 12
3334.8316700276482
 22
4323.3548996505697
 32
0.0
 13
3334.8316700276482
 23
4323.3548996505697
 33
0.0
  0
TEXT
  5
175A
  8
1
 62
     0
 10
1584.831670027648
 20
4385.8548996505697
 30
0.0
 40
300.0
  1
2500
  0
POINT
  5
175B
  8
DEFPOINTS
 62
     0
 10
834.83167002764822
 20
3391.885493772555
 30
0.0
  0
POINT
  5
175C
  8
DEFPOINTS
 62
     0
 10
3334.8316700276482
 20
3391.885493772555
 30
0.0
  0
POINT
  5
175D
  8
DEFPOINTS
 62
     0
 10
3334.8316700276482
 20
4323.3548996505697
 30
0.0
  0
ENDBLK
  5
761
  8
0
  0
BLOCK
  8
0
  2
_CLOSEDBLANK
 70
     0
 10
0.0
 20
0.0
 30
0.0
  3
_CLOSEDBLANK
  1

  0
LINE
  5
7CD
  8
0
  6
BYBLOCK
 62
     0
 10
-1.0
 20
0.1666666666666666
 30
0.0
 11
0.0
 21
0.0
 31
0.0
  0
LINE
  5
7CE
  8
0
  6
BYBLOCK
 62
     0
 10
0.0
 20
0.0
 30
0.0
 11
-1.0
 21
-0.1666666666666666
 31
0.0
  0
LINE
  5
7CF
  8
0
  6
BYBLOCK
 62
     0
 10
-1.0
 20
0.1666666666666666
 30
0.0
 11
-1.0
 21
-0.1666666666666666
 31
0.0
  0
ENDBLK
  5
7D1
  8
0
  0
BLOCK
  8
0
  2
*D12
 70
     1
 10
0.0
 20
0.0
 30
0.0
  3
*D12
  1

  0
LINE
  5
175E
  8
0
 62
     0
 10
3334.8316700276482
 20
3454.385493772555
 30
0.0
 11
3334.8316700276482
 21
4448.3548996505697
 31
0.0
  0
LINE
  5
175F
  8
0
 62
     0
 10
5834.8316700276482
 20
3454.385493772555
 30
0.0
 11
5834.8316700276482
 21
4448.3548996505697
 31
0.0
  0
LINE
  5
1760
  8
0
 62
     0
 10
3584.8316700276482
 20
4323.3548996505697
 30
0.0
 11
5584.8316700276482
 21
4323.3548996505697
 31
0.0
  0
INSERT
  5
1761
  8
0
 62
     0
  2
_CLOSEDBLANK
 10
3334.8316700276482
 20
4323.3548996505697
 30
0.0
 41
250.0
 42
250.0
 43
250.0
 50
180.0
  0
INSERT
  5
1762
  8
0
 62
     0
  2
_CLOSEDBLANK
 10
5834.8316700276482
 20
4323.3548996505697
 30
0.0
 41
250.0
 42
250.0
 43
250.0
  0
TEXT
  5
1763
  8
1
 62
     0
 10
4084.8316700276482
 20
4385.8548996505697
 30
0.0
 40
300.0
  1
2500
  0
POINT
  5
1764
  8
DEFPOINTS
 62
     0
 10
3334.8316700276482
 20
3391.885493772555
 30
0.0
  0
POINT
  5
1765
  8
DEFPOINTS
 62
     0
 10
5834.8316700276482
 20
3391.885493772555
 30
0.0
  0
POINT
  5
1766
  8
DEFPOINTS
 62
     0
 10
5834.8316700276482
 20
4323.3548996505697
 30
0.0
  0
ENDBLK
  5
80D
  8
0
  0
BLOCK
  8
0
  2
_CLOSED
 70
     0
 10
0.0
 20
0.0
 30
0.0
  3
_CLOSED
  1

  0
LINE
  5
821
  8
0
  6
BYBLOCK
 62
     0
 10
-1.0
 20
0.1666666666666666
 30
0.0
 11
0.0
 21
0.0
 31
0.0
  0
LINE
  5
822
  8
0
  6
BYBLOCK
 62
     0
 10
0.0
 20
0.0
 30
0.0
 11
-1.0
 21
-0.1666666666666666
 31
0.0
  0
LINE
  5
823
  8
0
  6
BYBLOCK
 62
     0
 10
-1.0
 20
0.1666666666666666
 30
0.0
 11
-1.0
 21
-0.1666666666666666
 31
0.0
  0
LINE
  5
824
  8
0
  6
BYBLOCK
 62
     0
 10
0.0
 20
0.0
 30
0.0
 11
-1.0
 21
0.0
 31
0.0
  0
ENDBLK
  5
826
  8
0
  0
BLOCK
  8
0
  2
*D14
 70
     1
 10
0.0
 20
0.0
 30
0.0
  3
*D14
  1

  0
LINE
  5
1767
  8
0
 62
     0
 10
5834.8316700276482
 20
3454.385493772555
 30
0.0
 11
5834.8316700276482
 21
4448.3548996505697
 31
0.0
  0
LINE
  5
1768
  8
0
 62
     0
 10
8334.8316700276482
 20
3454.385493772555
 30
0.0
 11
8334.8316700276482
 21
4448.3548996505697
 31
0.0
  0
LINE
  5
1769
  8
0
 62
     0
 10
6084.8316700276482
 20
4323.3548996505697
 30
0.0
 11
8084.8316700276482
 21
4323.3548996505697
 31
0.0
  0
INSERT
  5
176A
  8
0
 62
     0
  2
_CLOSED
 10
5834.8316700276482
 20
4323.3548996505697
 30
0.0
 41
250.0
 42
250.0
 43
250.0
 50
180.0
  0
INSERT
  5
176B
  8
0
 62
     0
  2
_CLOSED
 10
8334.8316700276482
 20
4323.3548996505697
 30
0.0
 41
250.0
 42
250.0
 43
250.0
  0
TEXT
  5
176C
  8
1
 62
     0
 10
6584.8316700276482
 20
4385.8548996505697
 30
0.0
 40
300.0
  1
2500
  0
POINT
  5
176D
  8
DEFPOINTS
 62
     0
 10
5834.8316700276482
 20
3391.885493772555
 30
0.0
  0
POINT
  5
176E
  8
DEFPOINTS
 62
     0
 10
8334.8316700276482
 20
3391.885493772555
 30
0.0
  0
POINT
  5
176F
  8
DEFPOINTS
 62
     0
 10
8334.8316700276482
 20
4323.3548996505697
 30
0.0
  0
ENDBLK
  5
849
  8
0
  0
BLOCK
  8
0
  2
*D15
 70
     1
 10
0.0
 20
0.0
 30
0.0
  3
*D15
  1

  0
LINE
  5
1770
  8
0
 62
     0
 10
8334.8316700276482
 20
3454.385493772555
 30
0.0
 11
8334.8316700276482
 21
4448.3548996505697
 31
0.0
  0
LINE
  5
1771
  8
0
 62
     0
 10
10834.831670027639
 20
3454.385493772555
 30
0.0
 11
10834.831670027639
 21
4448.3548996505697
 31
0.0
  0
LINE
  5
1772
  8
0
 62
     0
 10
8584.8316700276482
 20
4323.3548996505697
 30
0.0
 11
10584.831670027639
 21
4323.3548996505697
 31
0.0
  0
INSERT
  5
1773
  8
0
 62
     0
  2
_DOT
 10
8334.8316700276482
 20
4323.3548996505697
 30
0.0
 41
250.0
 42
250.0
 43
250.0
 50
180.0
  0
INSERT
  5
1774
  8
0
 62
     0
  2
_DOT
 10
10834.831670027639
 20
4323.3548996505697
 30
0.0
 41
250.0
 42
250.0
 43
250.0
  0
TEXT
  5
1775
  8
1
 62
     0
 10
9084.8316700276482
 20
4385.8548996505697
 30
0.0
 40
300.0
  1
2500
  0
POINT
  5
1776
  8
DEFPOINTS
 62
     0
 10
8334.8316700276482
 20
3391.885493772555
 30
0.0
  0
POINT
  5
1777
  8
DEFPOINTS
 62
     0
 10
10834.831670027639
 20
3391.885493772555
 30
0.0
  0
POINT
  5
1778
  8
DEFPOINTS
 62
     0
 10
10834.831670027639
 20
4323.3548996505697
 30
0.0
  0
ENDBLK
  5
872
  8
0
  0
BLOCK
  8
0
  2
_DOT
 70
     0
 10
0.0
 20
0.0
 30
0.0
  3
_DOT
  1

  0
POLYLINE
  5
87D
  8
0
  6
BYBLOCK
 62
     0
 66
     1
 10
0.0
 20
0.0
 30
0.0
 70
     1
 40
0.5
 41
0.5
  0
VERTEX
  5
214D
  8
0
  6
BYBLOCK
 62
     0
 10
-0.25
 20
0.0
 30
0.0
 42
1.0
  0
VERTEX
  5
214E
  8
0
  6
BYBLOCK
 62
     0
 10
0.25
 20
0.0
 30
0.0
 42
1.0
  0
SEQEND
  5
214F
  8
0
  6
BYBLOCK
 62
     0
  0
LINE
  5
87E
  8
0
  6
BYBLOCK
 62
     0
 10
-0.5
 20
0.0
 30
0.0
 11
-1.0
 21
0.0
 31
0.0
  0
ENDBLK
  5
880
  8
0
  0
BLOCK
  8
0
  2
*D17
 70
     1
 10
0.0
 20
0.0
 30
0.0
  3
*D17
  1

  0
LINE
  5
1779
  8
0
 62
     0
 10
10834.831670027639
 20
3454.385493772555
 30
0.0
 11
10834.831670027639
 21
4448.3548996505697
 31
0.0
  0
LINE
  5
177A
  8
0
 62
     0
 10
13334.831670027639
 20
3454.385493772555
 30
0.0
 11
13334.831670027639
 21
4448.3548996505697
 31
0.0
  0
LINE
  5
177B
  8
0
 62
     0
 10
10834.831670027639
 20
4323.3548996505697
 30
0.0
 11
13334.831670027639
 21
4323.3548996505697
 31
0.0
  0
INSERT
  5
177C
  8
0
 62
     0
  2
_ARCHTICK
 10
10834.831670027639
 20
4323.3548996505697
 30
0.0
 41
250.0
 42
250.0
 43
250.0
 50
180.0
  0
INSERT
  5
177D
  8
0
 62
     0
  2
_ARCHTICK
 10
13334.831670027639
 20
4323.3548996505697
 30
0.0
 41
250.0
 42
250.0
 43
250.0
  0
TEXT
  5
177E
  8
1
 62
     0
 10
11584.831670027639
 20
4385.8548996505697
 30
0.0
 40
300.0
  1
2500
  0
POINT
  5
177F
  8
DEFPOINTS
 62
     0
 10
10834.831670027639
 20
3391.885493772555
 30
0.0
  0
POINT
  5
1780
  8
DEFPOINTS
 62
     0
 10
13334.831670027639
 20
3391.885493772555
 30
0.0
  0
POINT
  5
1781
  8
DEFPOINTS
 62
     0
 10
13334.831670027639
 20
4323.3548996505697
 30
0.0
  0
ENDBLK
  5
8A9
  8
0
  0
BLOCK
  8
0
  2
_ARCHTICK
 70
     0
 10
0.0
 20
0.0
 30
0.0
  3
_ARCHTICK
  1

  0
POLYLINE
  5
8B4
  8
0
  6
BYBLOCK
 62
     0
 66
     1
 10
0.0
 20
0.0
 30
0.0
 40
0.15
 41
0.15
  0
VERTEX
  5
2150
  8
0
  6
BYBLOCK
 62
     0
 10
-0.5
 20
-0.5
 30
0.0
  0
VERTEX
  5
2151
  8
0
  6
BYBLOCK
 62
     0
 10
0.5
 20
0.5
 30
0.0
  0
SEQEND
  5
2152
  8
0
  6
BYBLOCK
 62
     0
  0
ENDBLK
  5
8B6
  8
0
  0
BLOCK
  8
0
  2
*D19
 70
     1
 10
0.0
 20
0.0
 30
0.0
  3
*D19
  1

  0
LINE
  5
1782
  8
0
 62
     0
 10
13334.831670027639
 20
3454.385493772555
 30
0.0
 11
13334.831670027639
 21
4448.3548996505697
 31
0.0
  0
LINE
  5
1783
  8
0
 62
     0
 10
15834.831670027639
 20
3454.385493772555
 30
0.0
 11
15834.831670027639
 21
4448.3548996505697
 31
0.0
  0
LINE
  5
1784
  8
0
 62
     0
 10
13334.831670027639
 20
4323.3548996505697
 30
0.0
 11
15834.831670027639
 21
4323.3548996505697
 31
0.0
  0
INSERT
  5
1785
  8
0
 62
     0
  2
_OBLIQUE
 10
13334.831670027639
 20
4323.3548996505697
 30
0.0
 41
250.0
 42
250.0
 43
250.0
 50
180.0
  0
INSERT
  5
1786
  8
0
 62
     0
  2
_OBLIQUE
 10
15834.831670027639
 20
4323.3548996505697
 30
0.0
 41
250.0
 42
250.0
 43
250.0
  0
TEXT
  5
1787
  8
1
 62
     0
 10
14084.831670027639
 20
4385.8548996505697
 30
0.0
 40
300.0
  1
2500
  0
POINT
  5
1788
  8
DEFPOINTS
 62
     0
 10
13334.831670027639
 20
3391.885493772555
 30
0.0
  0
POINT
  5
1789
  8
DEFPOINTS
 62
     0
 10
15834.831670027639
 20
3391.885493772555
 30
0.0
  0
POINT
  5
178A
  8
DEFPOINTS
 62
     0
 10
15834.831670027639
 20
4323.3548996505697
 30
0.0
  0
ENDBLK
  5
8D6
  8
0
  0
BLOCK
  8
0
  2
_OBLIQUE
 70
     0
 10
0.0
 20
0.0
 30
0.0
  3
_OBLIQUE
  1

  0
LINE
  5
8E1
  8
0
  6
BYBLOCK
 62
     0
 10
-0.5
 20
-0.5
 30
0.0
 11
0.5
 21
0.5
 31
0.0
  0
ENDBLK
  5
8E3
  8
0
  0
BLOCK
  8
0
  2
*D21
 70
     1
 10
0.0
 20
0.0
 30
0.0
  3
*D21
  1

  0
LINE
  5
178B
  8
0
 62
     0
 10
15834.831670027639
 20
3454.385493772555
 30
0.0
 11
15834.831670027639
 21
4448.3548996505697
 31
0.0
  0
LINE
  5
178C
  8
0
 62
     0
 10
18334.831670027641
 20
3454.385493772555
 30
0.0
 11
18334.831670027641
 21
4448.3548996505697
 31
0.0
  0
LINE
  5
178D
  8
0
 62
     0
 10
16084.831670027639
 20
4323.3548996505697
 30
0.0
 11
18084.831670027648
 21
4323.3548996505697
 31
0.0
  0
INSERT
  5
178E
  8
0
 62
     0
  2
_OPEN
 10
15834.831670027639
 20
4323.3548996505697
 30
0.0
 41
250.0
 42
250.0
 43
250.0
 50
180.0
  0
INSERT
  5
178F
  8
0
 62
     0
  2
_OPEN
 10
18334.831670027641
 20
4323.3548996505697
 30
0.0
 41
250.0
 42
250.0
 43
250.0
  0
TEXT
  5
1790
  8
1
 62
     0
 10
16584.831670027641
 20
4385.8548996505697
 30
0.0
 40
300.0
  1
2500
  0
POINT
  5
1791
  8
DEFPOINTS
 62
     0
 10
15834.831670027639
 20
3391.885493772555
 30
0.0
  0
POINT
  5
1792
  8
DEFPOINTS
 62
     0
 10
18334.831670027641
 20
3391.885493772555
 30
0.0
  0
POINT
  5
1793
  8
DEFPOINTS
 62
     0
 10
18334.831670027641
 20
4323.3548996505697
 30
0.0
  0
ENDBLK
  5
904
  8
0
  0
BLOCK
  8
0
  2
_OPEN
 70
     0
 10
0.0
 20
0.0
 30
0.0
  3
_OPEN
  1

  0
LINE
  5
90F
  8
0
  6
BYBLOCK
 62
     0
 10
-1.0
 20
0.1666666666666666
 30
0.0
 11
0.0
 21
0.0
 31
0.0
  0
LINE
  5
910
  8
0
  6
BYBLOCK
 62
     0
 10
-1.0
 20
-0.1666666666666666
 30
0.0
 11
0.0
 21
0.0
 31
0.0
  0
LINE
  5
911
  8
0
  6
BYBLOCK
 62
     0
 10
0.0
 20
0.0
 30
0.0
 11
-1.0
 21
0.0
 31
0.0
  0
ENDBLK
  5
913
  8
0
  0
BLOCK
  8
0
  2
*D23
 70
     1
 10
0.0
 20
0.0
 30
0.0
  3
*D23
  1

  0
LINE
  5
1794
  8
0
 62
     0
 10
18334.831670027641
 20
3454.385493772555
 30
0.0
 11
18334.831670027641
 21
4448.3548996505697
 31
0.0
  0
LINE
  5
1795
  8
0
 62
     0
 10
20834.831670027641
 20
3454.385493772555
 30
0.0
 11
20834.831670027641
 21
4448.3548996505697
 31
0.0
  0
LINE
  5
1796
  8
0
 62
     0
 10
18584.831670027641
 20
4323.3548996505697
 30
0.0
 11
20584.831670027641
 21
4323.3548996505697
 31
0.0
  0
INSERT
  5
1797
  8
0
 62
     0
  2
_ORIGIN
 10
18334.831670027641
 20
4323.3548996505697
 30
0.0
 41
250.0
 42
250.0
 43
250.0
 50
180.0
  0
INSERT
  5
1798
  8
0
 62
     0
  2
_ORIGIN
 10
20834.831670027641
 20
4323.3548996505697
 30
0.0
 41
250.0
 42
250.0
 43
250.0
  0
TEXT
  5
1799
  8
1
 62
     0
 10
19084.831670027641
 20
4385.8548996505697
 30
0.0
 40
300.0
  1
2500
  0
POINT
  5
179A
  8
DEFPOINTS
 62
     0
 10
18334.831670027641
 20
3391.885493772555
 30
0.0
  0
POINT
  5
179B
  8
DEFPOINTS
 62
     0
 10
20834.831670027641
 20
3391.885493772555
 30
0.0
  0
POINT
  5
179C
  8
DEFPOINTS
 62
     0
 10
20834.831670027641
 20
4323.3548996505697
 30
0.0
  0
ENDBLK
  5
93C
  8
0
  0
BLOCK
  8
0
  2
_ORIGIN
 70
     0
 10
0.0
 20
0.0
 30
0.0
  3
_ORIGIN
  1

  0
CIRCLE
  5
947
  8
0
  6
BYBLOCK
 62
     0
 10
0.0
 20
0.0
 30
0.0
 40
0.5
  0
LINE
  5
948
  8
0
  6
BYBLOCK
 62
     0
 10
0.0
 20
0.0
 30
0.0
 11
-1.0
 21
0.0
 31
0.0
  0
ENDBLK
  5
94A
  8
0
  0
BLOCK
  8
0
  2
*D25
 70
     1
 10
0.0
 20
0.0
 30
0.0
  3
*D25
  1

  0
LINE
  5
179D
  8
0
 62
     0
 10
20834.831670027641
 20
3454.385493772555
 30
0.0
 11
20834.831670027641
 21
4448.3548996505697
 31
0.0
  0
LINE
  5
179E
  8
0
 62
     0
 10
23334.831670027648
 20
3454.385493772555
 30
0.0
 11
23334.831670027648
 21
4448.3548996505697
 31
0.0
  0
LINE
  5
179F
  8
0
 62
     0
 10
21084.831670027648
 20
4323.3548996505697
 30
0.0
 11
23084.831670027641
 21
4323.3548996505697
 31
0.0
  0
INSERT
  5
17A0
  8
0
 62
     0
  2
_ORIGIN2
 10
20834.831670027641
 20
4323.3548996505697
 30
0.0
 41
250.0
 42
250.0
 43
250.0
 50
180.0
  0
INSERT
  5
17A1
  8
0
 62
     0
  2
_ORIGIN2
 10
23334.831670027648
 20
4323.3548996505697
 30
0.0
 41
250.0
 42
250.0
 43
250.0
  0
TEXT
  5
17A2
  8
1
 62
     0
 10
21584.831670027641
 20
4385.8548996505697
 30
0.0
 40
300.0
  1
2500
  0
POINT
  5
17A3
  8
DEFPOINTS
 62
     0
 10
20834.831670027641
 20
3391.885493772555
 30
0.0
  0
POINT
  5
17A4
  8
DEFPOINTS
 62
     0
 10
23334.831670027648
 20
3391.885493772555
 30
0.0
  0
POINT
  5
17A5
  8
DEFPOINTS
 62
     0
 10
23334.831670027648
 20
4323.3548996505697
 30
0.0
  0
ENDBLK
  5
98A
  8
0
  0
BLOCK
  8
0
  2
_ORIGIN2
 70
     0
 10
0.0
 20
0.0
 30
0.0
  3
_ORIGIN2
  1

  0
CIRCLE
  5
995
  8
0
  6
BYBLOCK
 62
     0
 10
0.0
 20
0.0
 30
0.0
 40
0.5
  0
CIRCLE
  5
996
  8
0
  6
BYBLOCK
 62
     0
 10
0.0
 20
0.0
 30
0.0
 40
0.25
  0
LINE
  5
997
  8
0
  6
BYBLOCK
 62
     0
 10
-0.5
 20
0.0
 30
0.0
 11
-1.0
 21
0.0
 31
0.0
  0
ENDBLK
  5
999
  8
0
  0
BLOCK
  8
0
  2
*D27
 70
     1
 10
0.0
 20
0.0
 30
0.0
  3
*D27
  1

  0
LINE
  5
17A6
  8
0
 62
     0
 10
23334.831670027648
 20
3454.385493772555
 30
0.0
 11
23334.831670027648
 21
4448.3548996505697
 31
0.0
  0
LINE
  5
17A7
  8
0
 62
     0
 10
25834.831670027648
 20
3454.385493772555
 30
0.0
 11
25834.831670027648
 21
4448.3548996505697
 31
0.0
  0
LINE
  5
17A8
  8
0
 62
     0
 10
23584.831670027648
 20
4323.3548996505697
 30
0.0
 11
25584.831670027641
 21
4323.3548996505697
 31
0.0
  0
INSERT
  5
17A9
  8
0
 62
     0
  2
_OPEN90
 10
23334.831670027648
 20
4323.3548996505697
 30
0.0
 41
250.0
 42
250.0
 43
250.0
 50
180.0
  0
INSERT
  5
17AA
  8
0
 62
     0
  2
_OPEN90
 10
25834.831670027648
 20
4323.3548996505697
 30
0.0
 41
250.0
 42
250.0
 43
250.0
  0
TEXT
  5
17AB
  8
1
 62
     0
 10
24084.831670027641
 20
4385.8548996505697
 30
0.0
 40
300.0
  1
2500
  0
POINT
  5
17AC
  8
DEFPOINTS
 62
     0
 10
23334.831670027648
 20
3391.885493772555
 30
0.0
  0
POINT
  5
17AD
  8
DEFPOINTS
 62
     0
 10
25834.831670027648
 20
3391.885493772555
 30
0.0
  0
POINT
  5
17AE
  8
DEFPOINTS
 62
     0
 10
25834.831670027648
 20
4323.3548996505697
 30
0.0
  0
ENDBLK
  5
9D0
  8
0
  0
BLOCK
  8
0
  2
_OPEN90
 70
     0
 10
0.0
 20
0.0
 30
0.0
  3
_OPEN90
  1

  0
LINE
  5
9DB
  8
0
  6
BYBLOCK
 62
     0
 10
-0.5
 20
0.5
 30
0.0
 11
0.0
 21
0.0
 31
0.0
  0
LINE
  5
9DC
  8
0
  6
BYBLOCK
 62
     0
 10
0.0
 20
0.0
 30
0.0
 11
-0.5
 21
-0.5
 31
0.0
  0
LINE
  5
9DD
  8
0
  6
BYBLOCK
 62
     0
 10
0.0
 20
0.0
 30
0.0
 11
-1.0
 21
0.0
 31
0.0
  0
ENDBLK
  5
9DF
  8
0
  0
BLOCK
  8
0
  2
*D29
 70
     1
 10
0.0
 20
0.0
 30
0.0
  3
*D29
  1

  0
LINE
  5
17AF
  8
0
 62
     0
 10
25834.831670027648
 20
3454.385493772555
 30
0.0
 11
25834.831670027648
 21
4448.3548996505697
 31
0.0
  0
LINE
  5
17B0
  8
0
 62
     0
 10
28334.831670027648
 20
3454.385493772555
 30
0.0
 11
28334.831670027648
 21
4448.3548996505697
 31
0.0
  0
LINE
  5
17B1
  8
0
 62
     0
 10
26084.831670027648
 20
4323.3548996505697
 30
0.0
 11
28084.831670027641
 21
4323.3548996505697
 31
0.0
  0
INSERT
  5
17B2
  8
0
 62
     0
  2
_OPEN30
 10
25834.831670027648
 20
4323.3548996505697
 30
0.0
 41
250.0
 42
250.0
 43
250.0
 50
180.0
  0
INSERT
  5
17B3
  8
0
 62
     0
  2
_OPEN30
 10
28334.831670027648
 20
4323.3548996505697
 30
0.0
 41
250.0
 42
250.0
 43
250.0
  0
TEXT
  5
17B4
  8
1
 62
     0
 10
26584.831670027641
 20
4385.8548996505697
 30
0.0
 40
300.0
  1
2500
  0
POINT
  5
17B5
  8
DEFPOINTS
 62
     0
 10
25834.831670027648
 20
3391.885493772555
 30
0.0
  0
POINT
  5
17B6
  8
DEFPOINTS
 62
     0
 10
28334.831670027648
 20
3391.885493772555
 30
0.0
  0
POINT
  5
17B7
  8
DEFPOINTS
 62
     0
 10
28334.831670027648
 20
4323.3548996505697
 30
0.0
  0
ENDBLK
  5
ABC
  8
0
  0
BLOCK
  8
0
  2
_OPEN30
 70
     0
 10
0.0
 20
0.0
 30
0.0
  3
_OPEN30
  1

  0
LINE
  5
AC7
  8
0
  6
BYBLOCK
 62
     0
 10
-1.0
 20
0.26794919
 30
0.0
 11
0.0
 21
0.0
 31
0.0
  0
LINE
  5
AC8
  8
0
  6
BYBLOCK
 62
     0
 10
0.0
 20
0.0
 30
0.0
 11
-1.0
 21
-0.26794919
 31
0.0
  0
LINE
  5
AC9
  8
0
  6
BYBLOCK
 62
     0
 10
0.0
 20
0.0
 30
0.0
 11
-1.0
 21
0.0
 31
0.0
  0
ENDBLK
  5
ACB
  8
0
  0
BLOCK
  8
0
  2
*D31
 70
     1
 10
0.0
 20
0.0
 30
0.0
  3
*D31
  1

  0
LINE
  5
17B8
  8
0
 62
     0
 10
28334.831670027648
 20
3454.385493772555
 30
0.0
 11
28334.831670027648
 21
4448.3548996505697
 31
0.0
  0
LINE
  5
17B9
  8
0
 62
     0
 10
30834.831670027648
 20
3454.385493772555
 30
0.0
 11
30834.831670027648
 21
4448.3548996505697
 31
0.0
  0
LINE
  5
17BA
  8
0
 62
     0
 10
28334.831670027648
 20
4323.3548996505697
 30
0.0
 11
30834.831670027648
 21
4323.3548996505697
 31
0.0
  0
INSERT
  5
17BB
  8
0
 62
     0
  2
_DOTSMALL
 10
28334.831670027648
 20
4323.3548996505697
 30
0.0
 41
250.0
 42
250.0
 43
250.0
 50
180.0
  0
INSERT
  5
17BC
  8
0
 62
     0
  2
_DOTSMALL
 10
30834.831670027648
 20
4323.3548996505697
 30
0.0
 41
250.0
 42
250.0
 43
250.0
  0
TEXT
  5
17BD
  8
1
 62
     0
 10
29084.831670027641
 20
4385.8548996505697
 30
0.0
 40
300.0
  1
2500
  0
POINT
  5
17BE
  8
DEFPOINTS
 62
     0
 10
28334.831670027648
 20
3391.885493772555
 30
0.0
  0
POINT
  5
17BF
  8
DEFPOINTS
 62
     0
 10
30834.831670027648
 20
3391.885493772555
 30
0.0
  0
POINT
  5
17C0
  8
DEFPOINTS
 62
     0
 10
30834.831670027648
 20
4323.3548996505697
 30
0.0
  0
ENDBLK
  5
AF4
  8
0
  0
BLOCK
  8
0
  2
_DOTSMALL
 70
     0
 10
0.0
 20
0.0
 30
0.0
  3
_DOTSMALL
  1

  0
POLYLINE
  5
AFF
  8
0
  6
BYBLOCK
 62
     0
 66
     1
 10
0.0
 20
0.0
 30
0.0
 70
     1
 40
0.5
 41
0.5
  0
VERTEX
  5
2153
  8
0
  6
BYBLOCK
 62
     0
 10
-0.0625
 20
0.0
 30
0.0
 42
1.0
  0
VERTEX
  5
2154
  8
0
  6
BYBLOCK
 62
     0
 10
0.0625
 20
0.0
 30
0.0
 42
1.0
  0
SEQEND
  5
2155
  8
0
  6
BYBLOCK
 62
     0
  0
ENDBLK
  5
B01
  8
0
  0
BLOCK
  8
0
  2
*D33
 70
     1
 10
0.0
 20
0.0
 30
0.0
  3
*D33
  1

  0
LINE
  5
17C1
  8
0
 62
     0
 10
30834.831670027648
 20
3454.385493772555
 30
0.0
 11
30834.831670027648
 21
4448.3548996505697
 31
0.0
  0
LINE
  5
17C2
  8
0
 62
     0
 10
33334.831670027648
 20
3454.385493772555
 30
0.0
 11
33334.831670027648
 21
4448.3548996505697
 31
0.0
  0
LINE
  5
17C3
  8
0
 62
     0
 10
31084.831670027648
 20
4323.3548996505697
 30
0.0
 11
33084.831670027641
 21
4323.3548996505697
 31
0.0
  0
INSERT
  5
17C4
  8
0
 62
     0
  2
_DOTBLANK
 10
30834.831670027648
 20
4323.3548996505697
 30
0.0
 41
250.0
 42
250.0
 43
250.0
 50
180.0
  0
INSERT
  5
17C5
  8
0
 62
     0
  2
_DOTBLANK
 10
33334.831670027648
 20
4323.3548996505697
 30
0.0
 41
250.0
 42
250.0
 43
250.0
  0
TEXT
  5
17C6
  8
1
 62
     0
 10
31584.831670027641
 20
4385.8548996505697
 30
0.0
 40
300.0
  1
2500
  0
POINT
  5
17C7
  8
DEFPOINTS
 62
     0
 10
30834.831670027648
 20
3391.885493772555
 30
0.0
  0
POINT
  5
17C8
  8
DEFPOINTS
 62
     0
 10
33334.831670027648
 20
3391.885493772555
 30
0.0
  0
POINT
  5
17C9
  8
DEFPOINTS
 62
     0
 10
33334.831670027648
 20
4323.3548996505697
 30
0.0
  0
ENDBLK
  5
B2A
  8
0
  0
BLOCK
  8
0
  2
_DOTBLANK
 70
     0
 10
0.0
 20
0.0
 30
0.0
  3
_DOTBLANK
  1

  0
CIRCLE
  5
B35
  8
0
  6
BYBLOCK
 62
     0
 10
0.0
 20
0.0
 30
0.0
 40
0.5
  0
LINE
  5
B36
  8
0
  6
BYBLOCK
 62
     0
 10
-0.5
 20
0.0
 30
0.0
 11
-1.0
 21
0.0
 31
0.0
  0
ENDBLK
  5
B38
  8
0
  0
BLOCK
  8
0
  2
*D35
 70
     1
 10
0.0
 20
0.0
 30
0.0
  3
*D35
  1

  0
LINE
  5
17CA
  8
0
 62
     0
 10
33334.831670027648
 20
3454.385493772555
 30
0.0
 11
33334.831670027648
 21
4448.3548996505697
 31
0.0
  0
LINE
  5
17CB
  8
0
 62
     0
 10
35834.831670027648
 20
3454.385493772555
 30
0.0
 11
35834.831670027648
 21
4448.3548996505697
 31
0.0
  0
LINE
  5
17CC
  8
0
 62
     0
 10
33334.831670027648
 20
4323.3548996505697
 30
0.0
 11
35834.831670027648
 21
4323.3548996505697
 31
0.0
  0
INSERT
  5
17CD
  8
0
 62
     0
  2
_SMALL
 10
33334.831670027648
 20
4323.3548996505697
 30
0.0
 41
250.0
 42
250.0
 43
250.0
 50
180.0
  0
INSERT
  5
17CE
  8
0
 62
     0
  2
_SMALL
 10
35834.831670027648
 20
4323.3548996505697
 30
0.0
 41
250.0
 42
250.0
 43
250.0
  0
TEXT
  5
17CF
  8
1
 62
     0
 10
34084.831670027641
 20
4385.8548996505697
 30
0.0
 40
300.0
  1
2500
  0
POINT
  5
17D0
  8
DEFPOINTS
 62
     0
 10
33334.831670027648
 20
3391.885493772555
 30
0.0
  0
POINT
  5
17D1
  8
DEFPOINTS
 62
     0
 10
35834.831670027648
 20
3391.885493772555
 30
0.0
  0
POINT
  5
17D2
  8
DEFPOINTS
 62
     0
 10
35834.831670027648
 20
4323.3548996505697
 30
0.0
  0
ENDBLK
  5
B62
  8
0
  0
BLOCK
  8
0
  2
_SMALL
 70
     0
 10
0.0
 20
0.0
 30
0.0
  3
_SMALL
  1

  0
CIRCLE
  5
B6D
  8
0
  6
BYBLOCK
 62
     0
 10
0.0
 20
0.0
 30
0.0
 40
0.25
  0
ENDBLK
  5
B6F
  8
0
  0
BLOCK
  8
0
  2
*D37
 70
     1
 10
0.0
 20
0.0
 30
0.0
  3
*D37
  1

  0
LINE
  5
17D3
  8
0
 62
     0
 10
35834.831670027648
 20
3454.385493772555
 30
0.0
 11
35834.831670027648
 21
4448.3548996505697
 31
0.0
  0
LINE
  5
17D4
  8
0
 62
     0
 10
38334.831670027648
 20
3454.385493772555
 30
0.0
 11
38334.831670027648
 21
4448.3548996505697
 31
0.0
  0
LINE
  5
17D5
  8
0
 62
     0
 10
36084.831670027648
 20
4323.3548996505697
 30
0.0
 11
38084.831670027641
 21
4323.3548996505697
 31
0.0
  0
INSERT
  5
17D6
  8
0
 62
     0
  2
_BOXBLANK
 10
35834.831670027648
 20
4323.3548996505697
 30
0.0
 41
250.0
 42
250.0
 43
250.0
 50
180.0
  0
INSERT
  5
17D7
  8
0
 62
     0
  2
_BOXBLANK
 10
38334.831670027648
 20
4323.3548996505697
 30
0.0
 41
250.0
 42
250.0
 43
250.0
  0
TEXT
  5
17D8
  8
1
 62
     0
 10
36584.831670027641
 20
4385.8548996505697
 30
0.0
 40
300.0
  1
2500
  0
POINT
  5
17D9
  8
DEFPOINTS
 62
     0
 10
35834.831670027648
 20
3391.885493772555
 30
0.0
  0
POINT
  5
17DA
  8
DEFPOINTS
 62
     0
 10
38334.831670027648
 20
3391.885493772555
 30
0.0
  0
POINT
  5
17DB
  8
DEFPOINTS
 62
     0
 10
38334.831670027648
 20
4323.3548996505697
 30
0.0
  0
ENDBLK
  5
B8F
  8
0
  0
BLOCK
  8
0
  2
_BOXBLANK
 70
     0
 10
0.0
 20
0.0
 30
0.0
  3
_BOXBLANK
  1

  0
LINE
  5
B9A
  8
0
  6
BYBLOCK
 62
     0
 10
-0.5
 20
-0.5
 30
0.0
 11
0.5
 21
-0.5
 31
0.0
  0
LINE
  5
B9B
  8
0
  6
BYBLOCK
 62
     0
 10
0.5
 20
-0.5
 30
0.0
 11
0.5
 21
0.5
 31
0.0
  0
LINE
  5
B9C
  8
0
  6
BYBLOCK
 62
     0
 10
0.5
 20
0.5
 30
0.0
 11
-0.5
 21
0.5
 31
0.0
  0
LINE
  5
B9D
  8
0
  6
BYBLOCK
 62
     0
 10
-0.5
 20
0.5
 30
0.0
 11
-0.5
 21
-0.5
 31
0.0
  0
LINE
  5
B9E
  8
0
  6
BYBLOCK
 62
     0
 10
-0.5
 20
0.0
 30
0.0
 11
-1.0
 21
0.0
 31
0.0
  0
ENDBLK
  5
BA0
  8
0
  0
BLOCK
  8
0
  2
*D39
 70
     1
 10
0.0
 20
0.0
 30
0.0
  3
*D39
  1

  0
LINE
  5
17DC
  8
0
 62
     0
 10
38334.831670027648
 20
3454.385493772555
 30
0.0
 11
38334.831670027648
 21
4448.3548996505697
 31
0.0
  0
LINE
  5
17DD
  8
0
 62
     0
 10
40834.831670027641
 20
3454.385493772555
 30
0.0
 11
40834.831670027641
 21
4448.3548996505697
 31
0.0
  0
LINE
  5
17DE
  8
0
 62
     0
 10
38584.831670027648
 20
4323.3548996505697
 30
0.0
 11
40584.831670027648
 21
4323.3548996505697
 31
0.0
  0
INSERT
  5
17DF
  8
0
 62
     0
  2
_BOXFILLED
 10
38334.831670027648
 20
4323.3548996505697
 30
0.0
 41
250.0
 42
250.0
 43
250.0
 50
180.0
  0
INSERT
  5
17E0
  8
0
 62
     0
  2
_BOXFILLED
 10
40834.831670027641
 20
4323.3548996505697
 30
0.0
 41
250.0
 42
250.0
 43
250.0
  0
TEXT
  5
17E1
  8
1
 62
     0
 10
39084.831670027641
 20
4385.8548996505697
 30
0.0
 40
300.0
  1
2500
  0
POINT
  5
17E2
  8
DEFPOINTS
 62
     0
 10
38334.831670027648
 20
3391.885493772555
 30
0.0
  0
POINT
  5
17E3
  8
DEFPOINTS
 62
     0
 10
40834.831670027641
 20
3391.885493772555
 30
0.0
  0
POINT
  5
17E4
  8
DEFPOINTS
 62
     0
 10
40834.831670027641
 20
4323.3548996505697
 30
0.0
  0
ENDBLK
  5
E71
  8
0
  0
BLOCK
  8
0
  2
_BOXFILLED
 70
     0
 10
0.0
 20
0.0
 30
0.0
  3
_BOXFILLED
  1

  0
SOLID
  5
E7C
  8
0
  6
BYBLOCK
 62
     0
 10
-0.5
 20
0.5
 30
0.0
 11
0.5
 21
0.5
 31
0.0
 12
-0.5
 22
-0.5
 32
0.0
 13
0.5
 23
-0.5
 33
0.0
  0
LINE
  5
E7D
  8
0
  6
BYBLOCK
 62
     0
 10
-0.5
 20
0.0
 30
0.0
 11
-1.0
 21
0.0
 31
0.0
  0
ENDBLK
  5
E7F
  8
0
  0
BLOCK
  8
0
  2
*D41
 70
     1
 10
0.0
 20
0.0
 30
0.0
  3
*D41
  1

  0
LINE
  5
1DBB
  8
0
 62
     0
 10
3874.0720016190171
 20
794.91766210896446
 30
0.0
 11
3874.0720016190171
 21
1788.887067986979
 31
0.0
  0
LINE
  5
1DBC
  8
0
 62
     0
 10
6374.0720016190171
 20
794.91766210896446
 30
0.0
 11
6374.0720016190171
 21
1788.887067986979
 31
0.0
  0
LINE
  5
1DBD
  8
0
 62
     0
 10
4124.0720016190171
 20
1663.887067986979
 30
0.0
 11
6124.0720016190171
 21
1663.887067986979
 31
0.0
  0
INSERT
  5
1DBE
  8
0
 62
     0
  2
_DATUMBLANK
 10
3874.0720016190171
 20
1663.887067986979
 30
0.0
 41
250.0
 42
250.0
 43
250.0
 50
180.0
  0
INSERT
  5
1DBF
  8
0
 62
     0
  2
_DATUMBLANK
 10
6374.0720016190171
 20
1663.887067986979
 30
0.0
 41
250.0
 42
250.0
 43
250.0
  0
TEXT
  5
1DC0
  8
1
 62
     0
 10
4624.0720016190171
 20
1726.387067986979
 30
0.0
 40
300.0
  1
2500
  0
POINT
  5
1DC1
  8
DEFPOINTS
 62
     0
 10
3874.0720016190171
 20
732.41766210896446
 30
0.0
  0
POINT
  5
1DC2
  8
DEFPOINTS
 62
     0
 10
6374.0720016190171
 20
732.41766210896446
 30
0.0
  0
POINT
  5
1DC3
  8
DEFPOINTS
 62
     0
 10
6374.0720016190171
 20
1663.887067986979
 30
0.0
  0
ENDBLK
  5
EA0
  8
0
  0
BLOCK
  8
0
  2
_DATUMBLANK
 70
     0
 10
0.0
 20
0.0
 30
0.0
  3
_DATUMBLANK
  1

  0
LINE
  5
EAB
  8
0
  6
BYBLOCK
 62
     0
 10
0.0
 20
0.5773502700000001
 30
0.0
 11
-1.0
 21
0.0
 31
0.0
  0
LINE
  5
EAC
  8
0
  6
BYBLOCK
 62
     0
 10
-1.0
 20
0.0
 30
0.0
 11
0.0
 21
-0.5773502700000001
 31
0.0
  0
LINE
  5
EAD
  8
0
  6
BYBLOCK
 62
     0
 10
0.0
 20
-0.5773502700000001
 30
0.0
 11
0.0
 21
0.5773502700000001
 31
0.0
  0
ENDBLK
  5
EAF
  8
0
  0
BLOCK
  8
0
  2
*D43
 70
     1
 10
0.0
 20
0.0
 30
0.0
  3
*D43
  1

  0
LINE
  5
1DD4
  8
0
 62
     0
 10
6374.0720016190171
 20
794.91766210896446
 30
0.0
 11
6374.0720016190171
 21
1788.887067986979
 31
0.0
  0
LINE
  5
1DD5
  8
0
 62
     0
 10
8874.0720016190171
 20
794.91766210896446
 30
0.0
 11
8874.0720016190171
 21
1788.887067986979
 31
0.0
  0
LINE
  5
1DD6
  8
0
 62
     0
 10
6624.0720016190162
 20
1663.887067986979
 30
0.0
 11
8624.0720016190171
 21
1663.887067986979
 31
0.0
  0
INSERT
  5
1DD7
  8
0
 62
     0
  2
_DATUMFILLED
 10
6374.0720016190171
 20
1663.887067986979
 30
0.0
 41
250.0
 42
250.0
 43
250.0
 50
180.0
  0
INSERT
  5
1DD8
  8
0
 62
     0
  2
_DATUMFILLED
 10
8874.0720016190171
 20
1663.887067986979
 30
0.0
 41
250.0
 42
250.0
 43
250.0
  0
TEXT
  5
1DD9
  8
1
 62
     0
 10
7124.0720016190162
 20
1726.387067986979
 30
0.0
 40
300.0
  1
2500
  0
POINT
  5
1DDA
  8
DEFPOINTS
 62
     0
 10
6374.0720016190171
 20
732.41766210896446
 30
0.0
  0
POINT
  5
1DDB
  8
DEFPOINTS
 62
     0
 10
8874.0720016190171
 20
732.41766210896446
 30
0.0
  0
POINT
  5
1DDC
  8
DEFPOINTS
 62
     0
 10
8874.0720016190171
 20
1663.887067986979
 30
0.0
  0
ENDBLK
  5
F8D
  8
0
  0
BLOCK
  8
0
  2
_DATUMFILLED
 70
     0
 10
0.0
 20
0.0
 30
0.0
  3
_DATUMFILLED
  1

  0
SOLID
  5
F98
  8
0
  6
BYBLOCK
 62
     0
 10
0.0
 20
0.5773502700000001
 30
0.0
 11
-1.0
 21
0.0
 31
0.0
 12
0.0
 22
-0.5773502700000001
 32
0.0
 13
0.0
 23
-0.5773502700000001
 33
0.0
  0
ENDBLK
  5
F9A
  8
0
  0
BLOCK
  8
0
  2
*D45
 70
     1
 10
0.0
 20
0.0
 30
0.0
  3
*D45
  1

  0
LINE
  5
1DCB
  8
0
 62
     0
 10
8874.0720016190171
 20
794.91766210896446
 30
0.0
 11
8874.0720016190171
 21
1788.887067986979
 31
0.0
  0
LINE
  5
1DCC
  8
0
 62
     0
 10
11374.07200161901
 20
794.91766210896446
 30
0.0
 11
11374.07200161901
 21
1788.887067986979
 31
0.0
  0
LINE
  5
1DCD
  8
0
 62
     0
 10
8874.0720016190171
 20
1663.887067986979
 30
0.0
 11
11374.07200161901
 21
1663.887067986979
 31
0.0
  0
INSERT
  5
1DCE
  8
0
 62
     0
  2
_INTEGRAL
 10
8874.0720016190171
 20
1663.887067986979
 30
0.0
 41
250.0
 42
250.0
 43
250.0
 50
180.0
  0
INSERT
  5
1DCF
  8
0
 62
     0
  2
_INTEGRAL
 10
11374.07200161901
 20
1663.887067986979
 30
0.0
 41
250.0
 42
250.0
 43
250.0
  0
TEXT
  5
1DD0
  8
1
 62
     0
 10
9624.0720016190171
 20
1726.387067986979
 30
0.0
 40
300.0
  1
2500
  0
POINT
  5
1DD1
  8
DEFPOINTS
 62
     0
 10
8874.0720016190171
 20
732.41766210896446
 30
0.0
  0
POINT
  5
1DD2
  8
DEFPOINTS
 62
     0
 10
11374.07200161901
 20
732.41766210896446
 30
0.0
  0
POINT
  5
1DD3
  8
DEFPOINTS
 62
     0
 10
11374.07200161901
 20
1663.887067986979
 30
0.0
  0
ENDBLK
  5
115B
  8
0
  0
BLOCK
  8
0
  2
_INTEGRAL
 70
     0
 10
0.0
 20
0.0
 30
0.0
  3
_INTEGRAL
  1

  0
ARC
  5
1166
  8
0
  6
BYBLOCK
 62
     0
 10
0.44488802
 20
-0.09133463
 30
0.0
 40
0.4541666700000001
 50
101.9999999980395
 51
167.99999997991929
  0
ARC
  5
1167
  8
0
  6
BYBLOCK
 62
     0
 10
-0.44488802
 20
0.09133463
 30
0.0
 40
0.4541666700000001
 50
282.00000002154269
 51
348.00000000342249
  0
ENDBLK
  5
1169
  8
0
  0
BLOCK
  8
0
  2
*D47
 70
     1
 10
0.0
 20
0.0
 30
0.0
  3
*D47
  1

  0
LINE
  5
1DC4
  8
0
 62
     0
 10
11374.07200161901
 20
794.91766210896446
 30
0.0
 11
11374.07200161901
 21
1788.887067986979
 31
0.0
  0
LINE
  5
1DC5
  8
0
 62
     0
 10
13874.07200161901
 20
794.91766210896446
 30
0.0
 11
13874.07200161901
 21
1788.887067986979
 31
0.0
  0
LINE
  5
1DC6
  8
0
 62
     0
 10
11374.07200161901
 20
1663.887067986979
 30
0.0
 11
13874.07200161901
 21
1663.887067986979
 31
0.0
  0
TEXT
  5
1DC7
  8
1
 62
     0
 10
12124.07200161901
 20
1726.387067986979
 30
0.0
 40
300.0
  1
2500
  0
POINT
  5
1DC8
  8
DEFPOINTS
 62
     0
 10
11374.07200161901
 20
732.41766210896446
 30
0.0
  0
POINT
  5
1DC9
  8
DEFPOINTS
 62
     0
 10
13874.07200161901
 20
732.41766210896446
 30
0.0
  0
POINT
  5
1DCA
  8
DEFPOINTS
 62
     0
 10
13874.07200161901
 20
1663.887067986979
 30
0.0
  0
ENDBLK
  5
1189
  8
0
  0
BLOCK
  8
0
  2
_NONE
 70
     0
 10
0.0
 20
0.0
 30
0.0
  3
_NONE
  1

  0
ENDBLK
  5
1195
  8
0
  0
BLOCK
  8
0
  2
*D49
 70
     1
 10
0.0
 20
0.0
 30
0.0
  3
*D49
  1

  0
LINE
  5
1DDD
  8
0
 62
     0
 10
14608.826121400591
 20
794.91766210896446
 30
0.0
 11
14608.826121400591
 21
1788.887067986979
 31
0.0
  0
LINE
  5
1DDE
  8
0
 62
     0
 10
16108.826121400591
 20
794.91766210896446
 30
0.0
 11
16108.826121400591
 21
1788.887067986979
 31
0.0
  0
LINE
  5
1DDF
  8
0
 62
     0
 10
14858.826121400591
 20
1663.887067986979
 30
0.0
 11
15858.826121400591
 21
1663.887067986979
 31
0.0
  0
LINE
  5
1DE0
  8
0
 62
     0
 10
16108.826121400591
 20
1663.887067986979
 30
0.0
 11
17383.826121400591
 21
1663.887067986979
 31
0.0
  0
INSERT
  5
1DE1
  8
0
 62
     0
  2
_OPEN30
 10
14608.826121400591
 20
1663.887067986979
 30
0.0
 41
250.0
 42
250.0
 43
250.0
 50
180.0
  0
INSERT
  5
1DE2
  8
0
 62
     0
  2
_OPEN30
 10
16108.826121400591
 20
1663.887067986979
 30
0.0
 41
250.0
 42
250.0
 43
250.0
  0
TEXT
  5
1DE3
  8
1
 62
     0
 10
16421.326121400591
 20
1726.387067986979
 30
0.0
 40
300.0
  1
1500
  0
POINT
  5
1DE4
  8
DEFPOINTS
 62
     0
 10
14608.826121400591
 20
732.41766210896446
 30
0.0
  0
POINT
  5
1DE5
  8
DEFPOINTS
 62
     0
 10
16108.826121400591
 20
732.41766210896446
 30
0.0
  0
POINT
  5
1DE6
  8
DEFPOINTS
 62
     0
 10
16108.826121400591
 20
1663.887067986979
 30
0.0
  0
ENDBLK
  5
13FE
  8
0
  0
BLOCK
  8
0
  2
*D50
 70
     1
 10
0.0
 20
0.0
 30
0.0
  3
*D50
  1

  0
LINE
  5
1DB0
  8
0
 62
     0
 10
19054.680964136489
 20
794.91766210896446
 30
0.0
 11
19054.680964136489
 21
1788.887067986979
 31
0.0
  0
LINE
  5
1DB1
  8
0
 62
     0
 10
19554.680964136489
 20
794.91766210896446
 30
0.0
 11
19554.680964136489
 21
1788.887067986979
 31
0.0
  0
LINE
  5
1DB2
  8
0
 62
     0
 10
18804.680964136489
 20
1663.887067986979
 30
0.0
 11
18554.680964136489
 21
1663.887067986979
 31
0.0
  0
LINE
  5
1DB3
  8
0
 62
     0
 10
19804.680964136489
 20
1663.887067986979
 30
0.0
 11
20879.680964136489
 21
1663.887067986979
 31
0.0
  0
LINE
  5
1DB4
  8
0
 62
     0
 10
19054.680964136489
 20
1663.887067986979
 30
0.0
 11
19554.680964136489
 21
1663.887067986979
 31
0.0
  0
INSERT
  5
1DB5
  8
0
 62
     0
  2
_OPEN30
 10
19054.680964136489
 20
1663.887067986979
 30
0.0
 41
250.0
 42
250.0
 43
250.0
  0
INSERT
  5
1DB6
  8
0
 62
     0
  2
_OPEN30
 10
19554.680964136489
 20
1663.887067986979
 30
0.0
 41
250.0
 42
250.0
 43
250.0
 50
180.0
  0
TEXT
  5
1DB7
  8
1
 62
     0
 10
20117.180964136489
 20
1726.387067986979
 30
0.0
 40
300.0
  1
500
  0
POINT
  5
1DB8
  8
DEFPOINTS
 62
     0
 10
19054.680964136489
 20
732.41766210896446
 30
0.0
  0
POINT
  5
1DB9
  8
DEFPOINTS
 62
     0
 10
19554.680964136489
 20
732.41766210896446
 30
0.0
  0
POINT
  5
1DBA
  8
DEFPOINTS
 62
     0
 10
19554.680964136489
 20
1663.887067986979
 30
0.0
  0
ENDBLK
  5
1488
  8
0
  0
BLOCK
  8
0
  2
*D51
 70
     1
 10
0.0
 20
0.0
 30
0.0
  3
*D51
  1

  0
LINE
  5
1F3A
  8
0
 62
     0
 10
21971.23629970006
 20
1700.0
 30
0.0
 11
22602.860683220821
 21
1700.0
 31
0.0
  0
LINE
  5
1F3B
  8
0
 62
     0
 10
22602.860683220821
 20
1700.0
 30
0.0
 11
22607.86068322081
 21
731.28275756195944
 31
0.0
  0
LINE
  5
1F3C
  8
0
 62
     0
 10
22607.86068322081
 20
731.28275756195944
 30
0.0
 11
24313.48568322081
 21
731.28275756195944
 31
0.0
  0
TEXT
  5
1F3D
  8
1
 62
     0
 10
22613.48568322081
 20
731.90775756195944
 30
0.0
 40
300.0
  1
1638.24
  0
POINT
  5
1F3E
  8
DEFPOINTS
 62
     0
 10
21970.61129970006
 20
1700.0
 30
0.0
  0
POINT
  5
1F3F
  8
DEFPOINTS
 62
     0
 10
22612.86068322081
 20
731.28275756195944
 30
0.0
  0
POINT
  5
1F40
  8
DEFPOINTS
 62
     0
 10
51.460251012922981
 20
61.75531173110096
 30
0.0
  0
ENDBLK
  5
1577
  8
0
  0
BLOCK
  8
0
  2
*D52
 70
     1
 10
0.0
 20
0.0
 30
0.0
  3
*D52
  1

  0
LINE
  5
1DF5
  8
0
 62
     0
 10
23925.740356702401
 20
682.56152228546125
 30
0.0
 11
23925.740356702401
 21
1624.7724056287991
 31
0.0
  0
LINE
  5
1DF6
  8
0
 62
     0
 10
23925.740356702401
 20
1624.7724056287991
 30
0.0
 11
25157.97004022932
 21
1629.772405628798
 31
0.0
  0
LINE
  5
1DF7
  8
0
 62
     0
 10
25157.97004022932
 20
1629.772405628798
 30
0.0
 11
25157.97004022932
 21
3735.397405628798
 31
0.0
  0
TEXT
  5
1DF8
  8
1
 62
     0
 10
25157.34504022932
 20
1635.397405628803
 30
0.0
 40
300.0
  1
26524.29
 50
90.0
  0
POINT
  5
1DF9
  8
DEFPOINTS
 62
     0
 10
23925.740356702401
 20
681.93652228546125
 30
0.0
  0
POINT
  5
1DFA
  8
DEFPOINTS
 62
     0
 10
25157.97004022932
 20
1634.7724056287991
 30
0.0
  0
POINT
  5
1DFB
  8
DEFPOINTS
 62
     0
 10
-2598.548049632634
 20
0.0
 30
0.0
  0
ENDBLK
  5
15AC
  8
0
  0
BLOCK
  8
0
  2
*D53
 70
     1
 10
0.0
 20
0.0
 30
0.0
  3
*D53
  1

  0
LINE
  5
181C
  8
0
 62
     0
 10
33946.837039770689
 20
19578.32468523999
 30
0.0
 11
34632.087135132409
 21
18893.07458987827
 31
0.0
  0
LINE
  5
181D
  8
0
 62
     0
 10
37482.370945703427
 20
23113.85859117272
 30
0.0
 11
38167.621041065147
 21
22428.608495811
 31
0.0
  0
LINE
  5
181E
  8
0
 62
     0
 10
34720.475482780726
 20
19158.239632823221
 30
0.0
 11
37902.455998120189
 21
22340.220148162691
 31
0.0
  0
SOLID
  5
181F
  8
0
 62
     0
 10
34691.012700231287
 20
19187.70241537266
 30
0.0
 11
34749.938265330173
 21
19128.776850273782
 31
0.0
 12
34543.6987874841
 22
18981.462937526579
 32
0.0
 13
34543.6987874841
 23
18981.462937526579
 33
0.0
  0
SOLID
  5
1820
  8
0
 62
     0
 10
37872.993215570757
 20
22369.68293071213
 30
0.0
 11
37931.918780669643
 21
22310.757365613252
 31
0.0
 12
38079.23269341683
 22
22516.996843459321
 32
0.0
 13
38079.23269341683
 23
22516.996843459321
 33
0.0
  0
TEXT
  5
1821
  8
1
 62
     0
 10
35931.3958455627
 20
20457.548343253489
 30
0.0
 40
300.0
  1
5000
 50
45.0
  0
POINT
  5
1822
  8
DEFPOINTS
 62
     0
 10
33902.642865946531
 20
19622.518859064148
 30
0.0
  0
POINT
  5
1823
  8
DEFPOINTS
 62
     0
 10
37438.176771879269
 20
23158.05276499689
 30
0.0
  0
POINT
  5
1824
  8
DEFPOINTS
 62
     0
 10
38079.23269341683
 20
22516.996843459321
 30
0.0
  0
ENDBLK
  5
168E
  8
0
  0
BLOCK
  8
0
  2
*D54
 70
     1
 10
0.0
 20
0.0
 30
0.0
  3
*D54
  1

  0
LINE
  5
1825
  8
0
 62
     0
 10
36421.710773923609
 20
24262.90711060086
 30
0.0
 11
37033.396108295223
 21
24874.59244497247
 31
0.0
  0
LINE
  5
1826
  8
0
 62
     0
 10
37482.370945703427
 20
23202.246938821041
 30
0.0
 11
38094.056280075041
 21
23813.932273192651
 31
0.0
  0
LINE
  5
1827
  8
0
 62
     0
 10
37121.78445594354
 20
24609.427402027519
 30
0.0
 11
37828.89123713009
 21
23902.320620840968
 31
0.0
  0
SOLID
  5
1828
  8
0
 62
     0
 10
37151.247238492979
 20
24638.890184576951
 30
0.0
 11
37092.321673394101
 21
24579.96461947808
 31
0.0
 12
36945.007760646899
 22
24786.204097324149
 32
0.0
 13
36945.007760646899
 23
24786.204097324149
 33
0.0
  0
SOLID
  5
1829
  8
0
 62
     0
 10
37858.354019679529
 20
23931.7834033904
 30
0.0
 11
37799.428454580651
 21
23872.857838291529
 31
0.0
 12
38005.667932426717
 22
23725.543925544331
 32
0.0
 13
38005.667932426717
 23
23725.543925544331
 33
0.0
  0
TEXT
  5
182A
  8
1
 62
     0
 10
37201.333968827021
 20
24618.266236792351
 30
0.0
 40
300.0
  1
1500
 50
315.0
  0
POINT
  5
182B
  8
DEFPOINTS
 62
     0
 10
36377.51660009945
 20
24218.712936776701
 30
0.0
  0
POINT
  5
182C
  8
DEFPOINTS
 62
     0
 10
37438.176771879269
 20
23158.052764996879
 30
0.0
  0
POINT
  5
182D
  8
DEFPOINTS
 62
     0
 10
38005.667932426717
 20
23725.543925544331
 30
0.0
  0
ENDBLK
  5
169B
  8
0
  0
BLOCK
  8
0
  2
*D55
 70
     1
 10
0.0
 20
0.0
 30
0.0
  3
*D55
  1

  0
LINE
  5
182E
  8
0
 62
     0
 10
34061.617553885691
 20
26900.654083678131
 30
0.0
 11
34061.617553885691
 21
25931.56410520013
 31
0.0
  0
LINE
  5
182F
  8
0
 62
     0
 10
39061.617553885691
 20
26900.654083678131
 30
0.0
 11
39061.617553885691
 21
25931.56410520013
 31
0.0
  0
LINE
  5
1830
  8
0
 62
     0
 10
34311.617553885691
 20
26056.56410520013
 30
0.0
 11
38811.617553885691
 21
26056.56410520013
 31
0.0
  0
SOLID
  5
1831
  8
0
 62
     0
 10
34311.617553885691
 20
26098.230771866791
 30
0.0
 11
34311.617553885691
 21
26014.897438533459
 31
0.0
 12
34061.617553885691
 22
26056.56410520013
 32
0.0
 13
34061.617553885691
 23
26056.56410520013
 33
0.0
  0
SOLID
  5
1832
  8
0
 62
     0
 10
38811.617553885691
 20
26098.230771866791
 30
0.0
 11
38811.617553885691
 21
26014.897438533459
 31
0.0
 12
39061.617553885691
 22
26056.56410520013
 32
0.0
 13
39061.617553885691
 23
26056.56410520013
 33
0.0
  0
TEXT
  5
1833
  8
1
 62
     0
 10
36086.617553885691
 20
26119.064105200119
 30
0.0
 40
300.0
  1
5000
  0
POINT
  5
1834
  8
DEFPOINTS
 62
     0
 10
34061.617553885691
 20
26963.154083678131
 30
0.0
  0
POINT
  5
1835
  8
DEFPOINTS
 62
     0
 10
39061.617553885691
 20
26963.154083678131
 30
0.0
  0
POINT
  5
1836
  8
DEFPOINTS
 62
     0
 10
39061.617553885691
 20
26056.56410520013
 30
0.0
  0
ENDBLK
  5
16BB
  8
0
  0
BLOCK
  8
0
  2
*D56
 70
     1
 10
0.0
 20
0.0
 30
0.0
  3
*D56
  1

  0
LINE
  5
1837
  8
0
 62
     0
 10
39124.117553885691
 20
28463.154083678131
 30
0.0
 11
39989.171249658742
 21
28463.154083678131
 31
0.0
  0
LINE
  5
1838
  8
0
 62
     0
 10
39124.117553885691
 20
26963.154083678131
 30
0.0
 11
39989.171249658742
 21
26963.154083678131
 31
0.0
  0
LINE
  5
1839
  8
0
 62
     0
 10
39864.171249658742
 20
28213.154083678131
 30
0.0
 11
39864.171249658742
 21
27213.154083678131
 31
0.0
  0
SOLID
  5
183A
  8
0
 62
     0
 10
39822.504582992071
 20
28213.154083678131
 30
0.0
 11
39905.837916325399
 21
28213.154083678131
 31
0.0
 12
39864.171249658742
 22
28463.154083678131
 32
0.0
 13
39864.171249658742
 23
28463.154083678131
 33
0.0
  0
SOLID
  5
183B
  8
0
 62
     0
 10
39822.504582992071
 20
27213.154083678131
 30
0.0
 11
39905.837916325399
 21
27213.154083678131
 31
0.0
 12
39864.171249658742
 22
26963.154083678131
 32
0.0
 13
39864.171249658742
 23
26963.154083678131
 33
0.0
  0
TEXT
  5
183C
  8
1
 62
     0
 10
39801.671249658728
 20
27263.154083678131
 30
0.0
 40
300.0
  1
1500
 50
90.0
  0
POINT
  5
183D
  8
DEFPOINTS
 62
     0
 10
39061.617553885691
 20
28463.154083678131
 30
0.0
  0
POINT
  5
183E
  8
DEFPOINTS
 62
     0
 10
39061.617553885691
 20
26963.154083678131
 30
0.0
  0
POINT
  5
183F
  8
DEFPOINTS
 62
     0
 10
39864.171249658742
 20
26963.154083678131
 30
0.0
  0
ENDBLK
  5
16C7
  8
0
  0
BLOCK
  8
0
  2
*D57
 70
     1
 10
0.0
 20
0.0
 30
0.0
  3
*D57
  1

  0
LINE
  5
1E06
  8
1
 62
     0
 10
24000.0
 20
703.98900868305645
 30
0.0
 11
24000.0
 21
1656.7748429744529
 31
0.0
  0
LINE
  5
1E07
  8
1
 62
     0
 10
24000.0
 20
1656.7748429744529
 30
0.0
 11
24978.462537397962
 21
1661.7748429744529
 31
0.0
  0
LINE
  5
1E08
  8
1
 62
     0
 10
24978.462537397962
 20
1661.7748429744529
 30
0.0
 11
24978.462537397962
 21
2917.3998429744529
 31
0.0
  0
TEXT
  5
1E09
  8
1
 62
     0
 10
24977.837537397962
 20
1667.399842974457
 30
0.0
 40
300.0
  1
24000
 50
90.0
  0
POINT
  5
1E0A
  8
DEFPOINTS
 62
     0
 10
24000.0
 20
703.36400868305645
 30
0.0
  0
POINT
  5
1E0B
  8
DEFPOINTS
 62
     0
 10
24978.462537397962
 20
1666.7748429744529
 30
0.0
  0
POINT
  5
1E0C
  8
DEFPOINTS
 62
     0
 10
0.0
 20
0.0
 30
0.0
  0
ENDBLK
  5
1E05
  8
0
  0
BLOCK
  8
0
  2
*D58
 70
     1
 10
0.0
 20
0.0
 30
0.0
  3
*D58
  1

  0
LINE
  5
1F20
  8
1
 62
     0
 10
25446.29486998995
 20
794.91766210896446
 30
0.0
 11
25446.29486998995
 21
1778.6664119135239
 31
0.0
  0
LINE
  5
1F21
  8
1
 62
     0
 10
26446.29486998995
 20
794.91766210896446
 30
0.0
 11
26446.29486998995
 21
1778.6664119135239
 31
0.0
  0
LINE
  5
1F22
  8
1
 62
     0
 10
25696.29486998995
 20
1653.6664119135239
 30
0.0
 11
26196.294869989961
 21
1653.6664119135239
 31
0.0
  0
LINE
  5
1F23
  8
1
 62
     0
 10
26446.29486998995
 20
1653.6664119135239
 30
0.0
 11
28171.29486998995
 21
1653.6664119135239
 31
0.0
  0
SOLID
  5
1F24
  8
1
 62
     0
 10
25696.29486998995
 20
1695.33307858019
 30
0.0
 11
25696.29486998995
 21
1611.9997452468569
 31
0.0
 12
25446.29486998995
 22
1653.6664119135239
 32
0.0
 13
25446.29486998995
 23
1653.6664119135239
 33
0.0
  0
SOLID
  5
1F25
  8
1
 62
     0
 10
26196.294869989961
 20
1695.33307858019
 30
0.0
 11
26196.294869989961
 21
1611.9997452468569
 31
0.0
 12
26446.29486998995
 22
1653.6664119135239
 32
0.0
 13
26446.29486998995
 23
1653.6664119135239
 33
0.0
  0
TEXT
  5
1F26
  8
1
 62
     0
 10
26758.79486998995
 20
1716.1664119135239
 30
0.0
 40
300.0
  1
<1000>
  0
POINT
  5
1F27
  8
DEFPOINTS
 62
     0
 10
25446.29486998995
 20
732.41766210896446
 30
0.0
  0
POINT
  5
1F28
  8
DEFPOINTS
 62
     0
 10
26446.29486998995
 20
732.41766210896446
 30
0.0
  0
POINT
  5
1F29
  8
DEFPOINTS
 62
     0
 10
26446.29486998995
 20
1653.6664119135239
 30
0.0
  0
ENDBLK
  5
1E1B
  8
0
  0
BLOCK
  8
0
  2
*D59
 70
     1
 10
0.0
 20
0.0
 30
0.0
  3
*D59
  1

  0
LINE
  5
1F64
  8
1
 62
     0
 10
21762.532893255539
 20
700.0
 30
0.0
 11
22509.702402746399
 21
700.0
 31
0.0
  0
LINE
  5
1F65
  8
1
 62
     0
 10
22509.702402746399
 20
700.0
 30
0.0
 11
22514.702402746399
 21
1660.4010289869841
 31
0.0
  0
LINE
  5
1F66
  8
1
 62
     0
 10
22514.702402746399
 20
1660.4010289869841
 30
0.0
 11
23220.327402746399
 21
1660.4010289869841
 31
0.0
  0
TEXT
  5
1F67
  8
1
 62
     0
 10
22520.327402746399
 20
1661.0260289869841
 30
0.0
 40
300.0
  1
700
  0
POINT
  5
1F68
  8
DEFPOINTS
 62
     0
 10
21761.907893255539
 20
700.0
 30
0.0
  0
POINT
  5
1F69
  8
DEFPOINTS
 62
     0
 10
22519.702402746399
 20
1660.4010289869841
 30
0.0
  0
POINT
  5
1F6A
  8
DEFPOINTS
 62
     0
 10
0.0
 20
0.0
 30
0.0
  0
ENDBLK
  5
1F5C
  8
0
  0
BLOCK
  8
0
  2
*U60
 70
     1
 10
0.0
 20
0.0
 30
0.0
  3
*U60
  1

  0
TEXT
  5
2113
  8
1
 10
16593.569701355282
 20
28715.175552153119
 30
0.0
 40
500.0
  1
２行の
 50
270.0
  7
KANJI4
  0
TEXT
  5
2114
  8
1
 10
15729.77951523007
 20
28715.175552153119
 30
0.0
 40
500.0
  1
マルチテキスト
 50
270.0
  7
KANJI4
  0
ENDBLK
  5
2116
  8
0
  0
BLOCK
  8
0
  2
*X61
 70
     1
 10
0.0
 20
0.0
 30
0.0
  3
*X61
  1

  0
LINE
  5
2131
  8
0
 62
     0
 10
40081.717347096652
 20
13879.054869113421
 30
0.0
 11
40498.453572004983
 21
14295.79109402177
 31
0.0
  0
LINE
  5
2132
  8
0
 62
     0
 10
39632.704541043189
 20
13879.054869113421
 30
0.0
 11
40498.45357200499
 21
14744.80390007522
 31
0.0
  0
LINE
  5
2133
  8
0
 62
     0
 10
39183.691734989727
 20
13879.054869113421
 30
0.0
 11
40498.453572004983
 21
15193.81670612868
 31
0.0
  0
LINE
  5
2134
  8
0
 62
     0
 10
38734.678928936279
 20
13879.054869113421
 30
0.0
 11
40498.453572004983
 21
15642.82951218213
 31
0.0
  0
LINE
  5
2135
  8
0
 62
     0
 10
38285.666122882809
 20
13879.054869113421
 30
0.0
 11
40285.666122882809
 21
15879.054869113421
 31
0.0
  0
LINE
  5
2136
  8
0
 62
     0
 10
37836.653316829361
 20
13879.054869113421
 30
0.0
 11
39836.653316829361
 21
15879.054869113421
 31
0.0
  0
LINE
  5
2137
  8
0
 62
     0
 10
37649.984925865952
 20
14141.39928420347
 30
0.0
 11
39387.640510775898
 21
15879.054869113421
 31
0.0
  0
LINE
  5
2138
  8
0
 62
     0
 10
37649.984925865952
 20
14590.412090256919
 30
0.0
 11
38938.627704722443
 21
15879.054869113421
 31
0.0
  0
LINE
  5
2139
  8
0
 62
     0
 10
37649.984925865952
 20
15039.42489631038
 30
0.0
 11
38489.614898668988
 21
15879.054869113421
 31
0.0
  0
LINE
  5
213A
  8
0
 62
     0
 10
37649.984925865952
 20
15488.437702363841
 30
0.0
 11
38040.602092615532
 21
15879.054869113421
 31
0.0
  0
ENDBLK
  5
213C
  8
0
  0
BLOCK
  8
0
  2
*U62
 70
     1
 10
0.0
 20
0.0
 30
0.0
  3
*U62
  1

  0
TEXT
  5
213E
  8
1
 10
804.37481723576946
 20
14004.754277329281
 30
0.0
 40
500.0
  1
2行の
  7
KANJI2
  0
TEXT
  5
213F
  8
1
 10
834.83167002764765
 20
13156.1925176
 30
0.0
 40
500.0
  1
マルチテキスト
  7
KANJI2
  0
ENDBLK
  5
2141
  8
0
  0
BLOCK
  8
0
  2
*U63
 70
     1
 10
0.0
 20
0.0
 30
0.0
  3
*U63
  1

  0
TEXT
  5
2143
  8
1
 10
8432.9106362633847
 20
14017.44463265931
 30
0.0
 40
500.0
  1
2行の
  7
KANJI
  0
TEXT
  5
2144
  8
1
 10
8432.9106362633847
 20
13184.111299325979
 30
0.0
 40
500.0
  1
マルチテキスト
  7
KANJI
  0
ENDBLK
  5
2146
  8
0
  0
BLOCK
  8
0
  2
*U64
 70
     1
 10
0.0
 20
0.0
 30
0.0
  3
*U64
  1

  0
TEXT
  5
2148
  8
1
 10
16113.20602565925
 20
21085.438817121259
 30
0.0
 40
500.0
  1
2行の
  7
KANJI3
  0
TEXT
  5
2149
  8
1
 10
16879.87269232592
 20
21085.438817121259
 30
0.0
 40
500.0
  1
マルチテキスト
  7
KANJI3
  0
ENDBLK
  5
214B
  8
0
  0
BLOCK
  8
0
  2
*U65
 70
     1
 10
0.0
 20
0.0
 30
0.0
  3
*U65
  1

  0
LINE
  5
216D
  8
1
 10
22959.563446334669
 20
9465.4792345465085
 30
0.0
 11
22397.063446334669
 21
8491.2006552890161
 31
0.0
  0
LINE
  5
216E
  8
1
 10
21834.56344633468
 20
9465.4792345465085
 30
0.0
 11
22959.563446334669
 21
9465.4792345465085
 31
0.0
  0
LINE
  5
216F
  8
1
 10
22959.563446334669
 20
7516.9220760315229
 30
0.0
 11
22397.063446334669
 21
8491.2006552890161
 31
0.0
  0
LINE
  5
2170
  8
1
 10
21834.56344633468
 20
9465.4792345465085
 30
0.0
 11
21459.563446334669
 21
10114.998287384829
 31
0.0
  0
LINE
  5
2171
  8
1
 10
22959.563446334669
 20
7516.9220760315229
 30
0.0
 11
21834.56344633468
 21
7516.9220760315229
 31
0.0
  0
LINE
  5
2172
  8
1
 10
21084.563446334669
 20
9465.4792345465085
 30
0.0
 11
21459.563446334669
 21
10114.998287384829
 31
0.0
  0
LINE
  5
2173
  8
1
 10
21834.56344633468
 20
7516.9220760315229
 30
0.0
 11
21459.563446334669
 21
6867.4030231931938
 31
0.0
  0
LINE
  5
2174
  8
1
 10
19959.56344633468
 20
9465.4792345465085
 30
0.0
 11
21084.563446334669
 21
9465.4792345465085
 31
0.0
  0
LINE
  5
2175
  8
1
 10
21084.563446334669
 20
7516.9220760315229
 30
0.0
 11
21459.563446334669
 21
6867.4030231931938
 31
0.0
  0
LINE
  5
2176
  8
1
 10
19959.56344633468
 20
9465.4792345465085
 30
0.0
 11
20522.063446334669
 21
8491.2006552890161
 31
0.0
  0
LINE
  5
2177
  8
1
 10
21084.563446334669
 20
7516.9220760315229
 30
0.0
 11
19959.56344633468
 21
7516.9220760315229
 31
0.0
  0
LINE
  5
2178
  8
1
 10
19959.56344633468
 20
7516.9220760315229
 30
0.0
 11
20522.063446334669
 21
8491.2006552890161
 31
0.0
  0
ENDBLK
  5
217A
  8
0
  0
ENDSEC
  0
SECTION
  2
ENTITIES
  0
POLYLINE
  5
16E
  8
1
 62
     0
 66
     1
 10
0.0
 20
0.0
 30
0.0
 70
     1
  0
VERTEX
  5
210D
  8
1
 62
     0
 10
32841.982694166712
 20
20683.17903084397
 30
0.0
  0
VERTEX
  5
210E
  8
1
 62
     0
 10
36377.51660009945
 20
24218.712936776701
 30
0.0
  0
VERTEX
  5
210F
  8
1
 62
     0
 10
37438.176771879269
 20
23158.052764996879
 30
0.0
  0
VERTEX
  5
2110
  8
1
 62
     0
 10
33902.642865946531
 20
19622.518859064141
 30
0.0
  0
SEQEND
  5
2111
  8
1
 62
     0
  0
INSERT
  5
170
  8
1
  6
CONTINUOUS
 62
     7
  2
*U1
 10
51.460251012922981
 20
61.75531173110096
 30
0.0
  0
TEXT
  5
171
  8
1
  6
CONTINUOUS
 62
     7
 10
51.460251012922981
 20
61.75531173110096
 30
0.0
 40
1000.0
  1
A3 1/100
 41
0.5200000000000001
  7
KANJI
  0
TEXT
  5
172
  8
1
 10
834.83167002764822
 20
8032.8686155686946
 30
0.0
 40
500.0
  1
DOT
  7
KANJI2
  0
LINE
  5
173
  8
1
 10
834.83167002764822
 20
12032.86861556869
 30
0.0
 11
7734.4503301242512
 21
12032.86861556869
 31
0.0
  0
TEXT
  5
174
  8
1
 10
834.83167002764822
 20
12032.86861556869
 30
0.0
 40
500.0
  1
ByLayer(CONTINUOUS)
  7
KANJI2
  0
LINE
  5
175
  8
1
  6
CONTINUOUS
 10
834.83167002764822
 20
11032.86861556869
 30
0.0
 11
7734.4503301242512
 21
11032.86861556869
 31
0.0
  0
TEXT
  5
176
  8
1
 10
834.83167002764822
 20
11032.86861556869
 30
0.0
 40
500.0
  1
CONTINUOUS
  7
KANJI2
  0
TEXT
  5
177
  8
1
 10
834.83167002764822
 20
10032.86861556869
 30
0.0
 40
500.0
  1
DASHDOT
  7
KANJI2
  0
LINE
  5
178
  8
1
  6
DASHDOT
 10
834.83167002764822
 20
10032.86861556869
 30
0.0
 11
7734.4503301242512
 21
10032.86861556869
 31
0.0
  0
LINE
  5
179
  8
1
  6
DIVIDE
 10
834.83167002764822
 20
9032.8686155686955
 30
0.0
 11
7734.4503301242512
 21
9032.8686155686955
 31
0.0
  0
TEXT
  5
17A
  8
1
 10
834.83167002764822
 20
9032.8686155686955
 30
0.0
 40
500.0
  1
DIVIDE
  7
KANJI2
  0
LINE
  5
17B
  8
1
  6
DOT
 10
834.83167002764822
 20
8032.8686155686946
 30
0.0
 11
7734.4503301242512
 21
8032.8686155686946
 31
0.0
  0
LINE
  5
17C
  8
1
  6
HIDDEN
 10
834.83167002764822
 20
7032.8686155686946
 30
0.0
 11
7734.4503301242512
 21
7032.8686155686946
 31
0.0
  0
TEXT
  5
17D
  8
1
 10
834.83167002764822
 20
7032.8686155686946
 30
0.0
 40
500.0
  1
HIDDEN
  7
KANJI2
  0
LINE
  5
17E
  8
1
 10
15709.47494670215
 20
28715.175552153119
 30
0.0
 11
15709.47494670215
 21
24182.269967974469
 31
0.0
  0
LINE
  5
17F
  8
1
 10
17116.412340949191
 20
28715.175552153119
 30
0.0
 11
17116.412340949191
 21
24182.269967974469
 31
0.0
  0
INSERT
  5
180
  8
1
  2
*U60
 10
0.0
 20
0.0
 30
0.0
  0
LINE
  5
181
  8
1
 10
17116.412340949191
 20
28715.175552153119
 30
0.0
 11
15709.47494670215
 21
28715.175552153119
 31
0.0
  0
LINE
  5
182
  8
1
 10
15709.47494670215
 20
24182.269967974469
 30
0.0
 11
17116.412340949191
 21
24182.269967974469
 31
0.0
  0
TEXT
  5
183
  8
1
 10
8432.9106362633902
 20
12032.86861556869
 30
0.0
 40
500.0
  1
ByLayer(White/Black)
  7
KANJI2
  0
LINE
  5
184
  8
1
 62
     1
 10
8432.9106362633902
 20
11032.86861556869
 30
0.0
 11
15332.52929635998
 21
11032.86861556869
 31
0.0
  0
LINE
  5
185
  8
1
 10
8432.9106362633902
 20
12032.86861556869
 30
0.0
 11
15332.52929635998
 21
12032.86861556869
 31
0.0
  0
LINE
  5
186
  8
1
 62
     2
 10
8432.9106362633902
 20
10032.86861556869
 30
0.0
 11
15332.52929635998
 21
10032.86861556869
 31
0.0
  0
LINE
  5
187
  8
1
 62
     3
 10
8432.9106362633902
 20
9032.8686155686955
 30
0.0
 11
15332.52929635998
 21
9032.8686155686955
 31
0.0
  0
LINE
  5
188
  8
1
 62
     4
 10
8432.9106362633902
 20
8032.8686155686946
 30
0.0
 11
15332.52929635998
 21
8032.8686155686946
 31
0.0
  0
LINE
  5
189
  8
1
 62
   113
 10
8432.9106362633902
 20
7032.8686155686946
 30
0.0
 11
15332.52929635998
 21
7032.8686155686946
 31
0.0
  0
TEXT
  5
18A
  8
1
 62
     2
 10
8432.9106362633902
 20
10032.86861556869
 30
0.0
 40
500.0
  1
Yellow
  7
KANJI2
  0
TEXT
  5
18B
  8
1
 62
   113
 10
8432.9106362633902
 20
7032.8686155686946
 30
0.0
 40
500.0
  1
パレット113
  7
KANJI2
  0
TEXT
  5
18C
  8
1
 62
     4
 10
8432.9106362633902
 20
8032.8686155686946
 30
0.0
 40
500.0
  1
Cyan
  7
KANJI2
  0
TEXT
  5
18D
  8
1
 62
     3
 10
8432.9106362633902
 20
9032.8686155686955
 30
0.0
 40
500.0
  1
Green
  7
KANJI2
  0
TEXT
  5
18E
  8
1
 62
     1
 10
8432.9106362633902
 20
11032.86861556869
 30
0.0
 40
500.0
  1
Red
  7
KANJI2
  0
TEXT
  5
18F
  8
1
 10
26269.848383258621
 20
28715.175552153141
 30
0.0
 40
500.0
  1
ＭＳゴシック上中心
 50
270.0
  7
KANJI4
 72
     1
 11
26769.848383258621
 21
25791.317684132831
 31
0.0
 73
     3
  0
LINE
  5
190
  8
1
 10
18739.863999123081
 20
23517.206009005899
 30
0.0
 11
18739.863999123081
 21
28715.175552153119
 31
0.0
  0
TEXT
  5
191
  8
1
 10
17739.86399912307
 20
28715.175552153119
 30
0.0
 40
1000.0
  1
幅を確認
 50
270.0
  7
KANJI4
 72
     2
 11
17739.86399912307
 21
23517.206009005909
 31
0.0
  0
LINE
  5
192
  8
1
 10
17739.86399912307
 20
28715.175552153119
 30
0.0
 11
17739.86399912307
 21
23517.206009005899
 31
0.0
  0
LINE
  5
193
  8
1
 10
19769.848383258621
 20
28715.175552153119
 30
0.0
 11
19769.848383258632
 21
23517.210080071909
 31
0.0
  0
LINE
  5
194
  8
1
 10
19269.848383258621
 20
28715.175552153119
 30
0.0
 11
19269.848383258632
 21
23517.210080071902
 31
0.0
  0
TEXT
  5
195
  8
1
 10
19269.848383258621
 20
28715.175552153119
 30
0.0
 40
500.0
  1
ＭＳゴシック右下
 50
270.0
  7
KANJI4
 72
     2
 11
19178.47782488299
 21
23517.206009005909
 31
0.0
 73
     1
  0
LINE
  5
196
  8
1
 10
20269.848383258632
 20
28715.175552153119
 30
0.0
 11
20269.848383258632
 21
22867.465922711501
 31
0.0
  0
LINE
  5
197
  8
1
 10
20769.848383258621
 20
28715.175552153119
 30
0.0
 11
20769.848383258632
 21
22867.465922711501
 31
0.0
  0
TEXT
  5
198
  8
1
 10
20269.848383258632
 20
28715.17555215313
 30
0.0
 40
500.0
  1
ＭＳゴシック下中心
 50
270.0
  7
KANJI4
 72
     1
 11
20178.47782488299
 21
25791.31768413282
 31
0.0
 73
     1
  0
LINE
  5
199
  8
1
 10
21269.848383258621
 20
28715.175552153119
 30
0.0
 11
21269.848383258632
 21
23517.210080071909
 31
0.0
  0
LINE
  5
19A
  8
1
 10
21769.848383258621
 20
28715.175552153119
 30
0.0
 11
21769.848383258632
 21
23517.21008007192
 31
0.0
  0
TEXT
  5
19B
  8
1
 10
21269.848383258621
 20
28715.175552153119
 30
0.0
 40
500.0
  1
ＭＳゴシック左下
 50
270.0
  7
KANJI4
 11
21178.47782488299
 21
28715.175552153119
 31
0.0
 73
     1
  0
LINE
  5
19C
  8
1
 10
22769.848383258621
 20
28715.17555215313
 30
0.0
 11
22769.848383258632
 21
22867.465922711512
 31
0.0
  0
LINE
  5
19D
  8
1
 10
22269.848383258621
 20
28715.17555215313
 30
0.0
 11
22269.848383258639
 21
22867.465922711512
 31
0.0
  0
TEXT
  5
19E
  8
1
 10
22269.848383258632
 20
28715.175552153119
 30
0.0
 40
500.0
  1
ＭＳゴシック右中央
 50
270.0
  7
KANJI4
 72
     2
 11
22519.848383258632
 21
22867.459816112521
 31
0.0
 73
     2
  0
LINE
  5
19F
  8
1
 10
23769.848383258621
 20
28715.17555215313
 30
0.0
 11
23769.848383258632
 21
23517.210080071909
 31
0.0
  0
LINE
  5
1A0
  8
1
 10
23269.848383258621
 20
28715.17555215313
 30
0.0
 11
23269.848383258632
 21
23517.210080071909
 31
0.0
  0
TEXT
  5
1A1
  8
1
 10
23269.848383258621
 20
28715.17555215313
 30
0.0
 40
500.0
  1
ＭＳゴシック中央
 50
270.0
  7
KANJI4
 72
     1
 11
23519.848383258621
 21
26116.19078057952
 31
0.0
 73
     2
  0
LINE
  5
1A2
  8
1
 10
24769.848383258621
 20
28715.17555215313
 30
0.0
 11
24769.848383258632
 21
22867.465922711512
 31
0.0
  0
LINE
  5
1A3
  8
1
 10
24269.848383258621
 20
28715.17555215313
 30
0.0
 11
24269.848383258632
 21
22867.465922711512
 31
0.0
  0
TEXT
  5
1A4
  8
1
 10
24269.848383258621
 20
28715.17555215313
 30
0.0
 40
500.0
  1
ＭＳゴシック左中央
 50
270.0
  7
KANJI4
 11
24519.848383258621
 21
28715.17555215313
 31
0.0
 73
     2
  0
LINE
  5
1A5
  8
1
 10
25269.848383258632
 20
28715.175552153141
 30
0.0
 11
25269.848383258632
 21
23517.210080071909
 31
0.0
  0
LINE
  5
1A6
  8
1
 10
25769.848383258621
 20
28715.175552153141
 30
0.0
 11
25769.848383258632
 21
23517.210080071909
 31
0.0
  0
TEXT
  5
1A7
  8
1
 10
25269.848383258632
 20
28715.175552153141
 30
0.0
 40
500.0
  1
ＭＳゴシック右上
 50
270.0
  7
KANJI4
 72
     2
 11
25769.848383258632
 21
23517.206009005931
 31
0.0
 73
     3
  0
LINE
  5
1A8
  8
1
 10
26269.848383258621
 20
28715.175552153141
 30
0.0
 11
26269.848383258639
 21
22867.465922711512
 31
0.0
  0
LINE
  5
1A9
  8
1
 10
26769.848383258621
 20
28715.175552153141
 30
0.0
 11
26769.848383258632
 21
22867.465922711519
 31
0.0
  0
LINE
  5
1AA
  8
1
 10
17739.86399912307
 20
28715.175552153119
 30
0.0
 11
18739.86399912307
 21
28715.175552153119
 31
0.0
  0
LINE
  5
1AB
  8
1
 10
19269.848383258621
 20
28715.175552153119
 30
0.0
 11
19769.848383258621
 21
28715.175552153119
 31
0.0
  0
LINE
  5
1AC
  8
1
 10
20269.848383258632
 20
28715.175552153119
 30
0.0
 11
20769.848383258621
 21
28715.175552153119
 31
0.0
  0
LINE
  5
1AD
  8
1
 10
21269.848383258621
 20
28715.175552153119
 30
0.0
 11
21769.848383258621
 21
28715.175552153119
 31
0.0
  0
LINE
  5
1AE
  8
1
 10
24269.848383258621
 20
28715.17555215313
 30
0.0
 11
24769.848383258621
 21
28715.17555215313
 31
0.0
  0
LINE
  5
1AF
  8
1
 10
23269.848383258621
 20
28715.17555215313
 30
0.0
 11
23769.848383258621
 21
28715.17555215313
 31
0.0
  0
LINE
  5
1B0
  8
1
 10
22269.848383258621
 20
28715.17555215313
 30
0.0
 11
22769.848383258621
 21
28715.17555215313
 31
0.0
  0
LINE
  5
1B1
  8
1
 10
25269.848383258632
 20
28715.175552153141
 30
0.0
 11
25769.848383258621
 21
28715.175552153141
 31
0.0
  0
LINE
  5
1B2
  8
1
 10
26269.848383258621
 20
28715.175552153141
 30
0.0
 11
26769.848383258621
 21
28715.175552153141
 31
0.0
  0
LINE
  5
1B3
  8
1
 10
19269.848383258621
 20
28065.428952153121
 30
0.0
 11
19769.848383258621
 21
28065.428952153121
 31
0.0
  0
LINE
  5
1B4
  8
1
 10
19269.848383258621
 20
27415.682352153119
 30
0.0
 11
19769.848383258621
 21
27415.682352153119
 31
0.0
  0
LINE
  5
1B5
  8
1
 10
19269.848383258621
 20
26765.93575215312
 30
0.0
 11
19769.848383258621
 21
26765.93575215312
 31
0.0
  0
LINE
  5
1B6
  8
1
 10
19269.848383258621
 20
26116.189152153122
 30
0.0
 11
19769.848383258621
 21
26116.189152153122
 31
0.0
  0
LINE
  5
1B7
  8
1
 10
19269.848383258621
 20
25466.442552153119
 30
0.0
 11
19769.848383258621
 21
25466.442552153119
 31
0.0
  0
LINE
  5
1B8
  8
1
 10
20269.848383258632
 20
27415.682352153119
 30
0.0
 11
20769.848383258621
 21
27415.682352153119
 31
0.0
  0
LINE
  5
1B9
  8
1
 10
20269.848383258632
 20
28065.428952153121
 30
0.0
 11
20769.848383258621
 21
28065.428952153121
 31
0.0
  0
LINE
  5
1BA
  8
1
 10
20269.848383258632
 20
26765.93575215312
 30
0.0
 11
20769.848383258621
 21
26765.93575215312
 31
0.0
  0
LINE
  5
1BB
  8
1
 10
21269.848383258621
 20
27415.682352153119
 30
0.0
 11
21769.848383258621
 21
27415.68235215313
 31
0.0
  0
LINE
  5
1BC
  8
1
 10
21269.848383258621
 20
28065.428952153121
 30
0.0
 11
21769.848383258621
 21
28065.428952153121
 31
0.0
  0
LINE
  5
1BD
  8
1
 10
21269.848383258621
 20
26765.93575215312
 30
0.0
 11
21769.848383258621
 21
26765.93575215312
 31
0.0
  0
LINE
  5
1BE
  8
1
 10
20269.848383258632
 20
26116.189152153129
 30
0.0
 11
20769.848383258621
 21
26116.189152153129
 31
0.0
  0
LINE
  5
1BF
  8
1
 10
20269.848383258632
 20
25466.442552153119
 30
0.0
 11
20769.848383258621
 21
25466.442552153119
 31
0.0
  0
LINE
  5
1C0
  8
1
 10
21269.848383258621
 20
26116.189152153129
 30
0.0
 11
21769.848383258621
 21
26116.189152153129
 31
0.0
  0
LINE
  5
1C1
  8
1
 10
21269.848383258621
 20
25466.44255215313
 30
0.0
 11
21769.848383258621
 21
25466.44255215313
 31
0.0
  0
LINE
  5
1C2
  8
1
 10
19269.848383258632
 20
24816.698394792711
 30
0.0
 11
19269.848383258632
 21
24816.698394792711
 31
0.0
  0
LINE
  5
1C3
  8
1
 10
19269.848383258632
 20
24816.698394792711
 30
0.0
 11
19769.848383258632
 21
24816.698394792718
 31
0.0
  0
LINE
  5
1C4
  8
1
 10
19269.848383258639
 20
24166.95423743231
 30
0.0
 11
19269.848383258639
 21
24166.95423743231
 31
0.0
  0
LINE
  5
1C5
  8
1
 10
19269.848383258632
 20
24166.95423743231
 30
0.0
 11
19769.848383258632
 21
24166.95423743231
 31
0.0
  0
LINE
  5
1C6
  8
1
 10
19269.848383258639
 20
23517.210080071902
 30
0.0
 11
19269.848383258639
 21
23517.210080071902
 31
0.0
  0
LINE
  5
1C7
  8
1
 10
19269.848383258632
 20
23517.210080071902
 30
0.0
 11
19769.848383258632
 21
23517.210080071909
 31
0.0
  0
LINE
  5
1C9
  8
1
 10
20269.848383258632
 20
24816.698394792718
 30
0.0
 11
20769.848383258632
 21
24816.698394792718
 31
0.0
  0
LINE
  5
1CA
  8
1
 10
20269.848383258632
 20
24166.95423743231
 30
0.0
 11
20769.848383258632
 21
24166.954237432321
 31
0.0
  0
LINE
  5
1CB
  8
1
 10
20269.848383258632
 20
24816.698394792718
 30
0.0
 11
20269.848383258632
 21
24816.698394792718
 31
0.0
  0
LINE
  5
1CC
  8
1
 10
20269.848383258632
 20
24166.95423743231
 30
0.0
 11
20269.848383258632
 21
24166.95423743231
 31
0.0
  0
LINE
  5
1CD
  8
1
 10
20269.848383258632
 20
23517.210080071909
 30
0.0
 11
20769.848383258632
 21
23517.210080071909
 31
0.0
  0
LINE
  5
1CE
  8
1
 10
20269.848383258639
 20
23517.210080071909
 30
0.0
 11
20269.848383258639
 21
23517.210080071909
 31
0.0
  0
LINE
  5
1CF
  8
1
 10
21269.848383258632
 20
24816.698394792718
 30
0.0
 11
21769.848383258632
 21
24816.698394792718
 31
0.0
  0
LINE
  5
1D0
  8
1
 10
21269.848383258632
 20
24166.954237432321
 30
0.0
 11
21769.848383258632
 21
24166.954237432321
 31
0.0
  0
LINE
  5
1D1
  8
1
 10
21269.848383258632
 20
24816.698394792718
 30
0.0
 11
21269.848383258632
 21
24816.698394792718
 31
0.0
  0
LINE
  5
1D2
  8
1
 10
21269.848383258639
 20
24166.954237432321
 30
0.0
 11
21269.848383258639
 21
24166.954237432321
 31
0.0
  0
LINE
  5
1D3
  8
1
 10
21269.848383258632
 20
23517.210080071909
 30
0.0
 11
21769.848383258632
 21
23517.21008007192
 31
0.0
  0
LINE
  5
1D4
  8
1
 10
21269.848383258639
 20
23517.210080071909
 30
0.0
 11
21269.848383258639
 21
23517.210080071909
 31
0.0
  0
LINE
  5
1D5
  8
1
 10
20269.848383258632
 20
22867.465922711501
 30
0.0
 11
20769.848383258632
 21
22867.465922711501
 31
0.0
  0
LINE
  5
1D6
  8
1
 10
20269.848383258639
 20
22867.465922711501
 30
0.0
 11
20269.848383258639
 21
22867.465922711501
 31
0.0
  0
LINE
  5
1D7
  8
1
 10
24269.848383258621
 20
25466.44255215313
 30
0.0
 11
24769.848383258621
 21
25466.44255215313
 31
0.0
  0
LINE
  5
1D8
  8
1
 10
24269.848383258621
 20
26116.189152153129
 30
0.0
 11
24769.848383258621
 21
26116.189152153129
 31
0.0
  0
LINE
  5
1D9
  8
1
 10
24269.848383258621
 20
26765.935752153131
 30
0.0
 11
24769.848383258621
 21
26765.935752153131
 31
0.0
  0
LINE
  5
1DA
  8
1
 10
24269.848383258621
 20
27415.68235215313
 30
0.0
 11
24769.848383258621
 21
27415.68235215313
 31
0.0
  0
LINE
  5
1DB
  8
1
 10
24269.848383258621
 20
28065.428952153128
 30
0.0
 11
24769.848383258621
 21
28065.428952153128
 31
0.0
  0
LINE
  5
1DC
  8
1
 10
23269.848383258621
 20
26765.935752153131
 30
0.0
 11
23769.848383258621
 21
26765.935752153131
 31
0.0
  0
LINE
  5
1DD
  8
1
 10
23269.848383258621
 20
27415.68235215313
 30
0.0
 11
23769.848383258621
 21
27415.68235215313
 31
0.0
  0
LINE
  5
1DE
  8
1
 10
23269.848383258621
 20
28065.428952153128
 30
0.0
 11
23769.848383258621
 21
28065.428952153128
 31
0.0
  0
LINE
  5
1DF
  8
1
 10
22269.848383258621
 20
27415.68235215313
 30
0.0
 11
22769.848383258621
 21
27415.68235215313
 31
0.0
  0
LINE
  5
1E0
  8
1
 10
22269.848383258621
 20
28065.428952153121
 30
0.0
 11
22769.848383258621
 21
28065.428952153128
 31
0.0
  0
LINE
  5
1E1
  8
1
 10
22269.848383258621
 20
26765.935752153131
 30
0.0
 11
22769.848383258621
 21
26765.935752153131
 31
0.0
  0
LINE
  5
1E2
  8
1
 10
23269.848383258621
 20
25466.442552153119
 30
0.0
 11
23769.848383258621
 21
25466.442552153119
 31
0.0
  0
LINE
  5
1E3
  8
1
 10
23269.848383258621
 20
26116.189152153129
 30
0.0
 11
23769.848383258621
 21
26116.189152153129
 31
0.0
  0
LINE
  5
1E4
  8
1
 10
22269.848383258621
 20
26116.189152153129
 30
0.0
 11
22769.848383258621
 21
26116.189152153129
 31
0.0
  0
LINE
  5
1E5
  8
1
 10
22269.848383258621
 20
25466.44255215313
 30
0.0
 11
22769.848383258621
 21
25466.44255215313
 31
0.0
  0
LINE
  5
1E6
  8
1
 10
25269.848383258632
 20
26765.935752153138
 30
0.0
 11
25769.848383258621
 21
26765.935752153138
 31
0.0
  0
LINE
  5
1E7
  8
1
 10
25269.848383258632
 20
27415.68235215313
 30
0.0
 11
25769.848383258621
 21
27415.68235215313
 31
0.0
  0
LINE
  5
1E8
  8
1
 10
25269.848383258632
 20
28065.428952153128
 30
0.0
 11
25769.848383258621
 21
28065.428952153128
 31
0.0
  0
LINE
  5
1E9
  8
1
 10
26269.848383258621
 20
28065.428952153139
 30
0.0
 11
26769.848383258621
 21
28065.428952153139
 31
0.0
  0
LINE
  5
1EA
  8
1
 10
26269.848383258621
 20
27415.682352153141
 30
0.0
 11
26769.848383258621
 21
27415.682352153141
 31
0.0
  0
LINE
  5
1EB
  8
1
 10
26269.848383258621
 20
26765.935752153138
 30
0.0
 11
26769.848383258621
 21
26765.935752153138
 31
0.0
  0
LINE
  5
1EC
  8
1
 10
25269.848383258632
 20
25466.44255215313
 30
0.0
 11
25769.848383258621
 21
25466.44255215313
 31
0.0
  0
LINE
  5
1ED
  8
1
 10
25269.848383258632
 20
26116.189152153129
 30
0.0
 11
25769.848383258621
 21
26116.189152153129
 31
0.0
  0
LINE
  5
1EE
  8
1
 10
26269.848383258621
 20
26116.18915215314
 30
0.0
 11
26769.848383258621
 21
26116.18915215314
 31
0.0
  0
LINE
  5
1EF
  8
1
 10
26269.848383258621
 20
25466.44255215313
 30
0.0
 11
26769.848383258621
 21
25466.44255215313
 31
0.0
  0
LINE
  5
1F0
  8
1
 10
24269.848383258632
 20
22867.465922711512
 30
0.0
 11
24769.848383258632
 21
22867.465922711512
 31
0.0
  0
LINE
  5
1F1
  8
1
 10
24269.848383258632
 20
23517.210080071909
 30
0.0
 11
24769.848383258632
 21
23517.210080071909
 31
0.0
  0
LINE
  5
1F2
  8
1
 10
24269.848383258632
 20
24166.95423743231
 30
0.0
 11
24769.848383258632
 21
24166.954237432321
 31
0.0
  0
LINE
  5
1F3
  8
1
 10
24269.848383258632
 20
24816.698394792718
 30
0.0
 11
24769.848383258632
 21
24816.698394792718
 31
0.0
  0
LINE
  5
1F4
  8
1
 10
23269.848383258632
 20
23517.210080071909
 30
0.0
 11
23769.848383258632
 21
23517.210080071909
 31
0.0
  0
LINE
  5
1F5
  8
1
 10
23269.848383258632
 20
24166.95423743231
 30
0.0
 11
23769.848383258632
 21
24166.95423743231
 31
0.0
  0
LINE
  5
1F6
  8
1
 10
23269.848383258632
 20
24816.698394792711
 30
0.0
 11
23769.848383258632
 21
24816.698394792718
 31
0.0
  0
LINE
  5
1F7
  8
1
 10
22269.848383258632
 20
24166.954237432321
 30
0.0
 11
22769.848383258632
 21
24166.954237432321
 31
0.0
  0
LINE
  5
1F8
  8
1
 10
22269.848383258632
 20
24816.698394792718
 30
0.0
 11
22769.848383258632
 21
24816.698394792718
 31
0.0
  0
LINE
  5
1F9
  8
1
 10
22269.848383258632
 20
24816.698394792718
 30
0.0
 11
22269.848383258632
 21
24816.698394792718
 31
0.0
  0
LINE
  5
1FA
  8
1
 10
22269.848383258639
 20
24166.954237432321
 30
0.0
 11
22269.848383258639
 21
24166.954237432321
 31
0.0
  0
LINE
  5
1FB
  8
1
 10
23269.848383258632
 20
24816.698394792711
 30
0.0
 11
23269.848383258632
 21
24816.698394792711
 31
0.0
  0
LINE
  5
1FC
  8
1
 10
23269.848383258639
 20
24166.95423743231
 30
0.0
 11
23269.848383258639
 21
24166.95423743231
 31
0.0
  0
LINE
  5
1FD
  8
1
 10
22269.848383258632
 20
23517.21008007192
 30
0.0
 11
22769.848383258632
 21
23517.21008007192
 31
0.0
  0
LINE
  5
1FE
  8
1
 10
22269.848383258639
 20
23517.21008007192
 30
0.0
 11
22269.848383258639
 21
23517.21008007192
 31
0.0
  0
LINE
  5
1FF
  8
1
 10
23269.848383258639
 20
23517.210080071909
 30
0.0
 11
23269.848383258639
 21
23517.210080071909
 31
0.0
  0
LINE
  5
200
  8
1
 10
24269.848383258632
 20
24816.698394792718
 30
0.0
 11
24269.848383258632
 21
24816.698394792718
 31
0.0
  0
LINE
  5
201
  8
1
 10
24269.848383258632
 20
24166.95423743231
 30
0.0
 11
24269.848383258632
 21
24166.95423743231
 31
0.0
  0
LINE
  5
202
  8
1
 10
24269.848383258639
 20
23517.210080071909
 30
0.0
 11
24269.848383258639
 21
23517.210080071909
 31
0.0
  0
LINE
  5
203
  8
1
 10
22269.848383258639
 20
22867.465922711512
 30
0.0
 11
22769.848383258632
 21
22867.465922711512
 31
0.0
  0
LINE
  5
204
  8
1
 10
22269.848383258639
 20
22867.465922711512
 30
0.0
 11
22269.848383258639
 21
22867.465922711512
 31
0.0
  0
LINE
  5
205
  8
1
 10
24269.848383258639
 20
22867.465922711512
 30
0.0
 11
24269.848383258639
 21
22867.465922711512
 31
0.0
  0
LINE
  5
206
  8
1
 10
25269.848383258632
 20
23517.210080071909
 30
0.0
 11
25769.848383258632
 21
23517.210080071909
 31
0.0
  0
LINE
  5
207
  8
1
 10
25269.848383258632
 20
24166.954237432321
 30
0.0
 11
25769.848383258632
 21
24166.954237432321
 31
0.0
  0
LINE
  5
208
  8
1
 10
25269.848383258632
 20
24816.698394792718
 30
0.0
 11
25769.848383258632
 21
24816.698394792729
 31
0.0
  0
LINE
  5
209
  8
1
 10
25269.848383258632
 20
24816.698394792718
 30
0.0
 11
25269.848383258632
 21
24816.698394792718
 31
0.0
  0
LINE
  5
20A
  8
1
 10
25269.848383258632
 20
24166.954237432321
 30
0.0
 11
25269.848383258632
 21
24166.954237432321
 31
0.0
  0
LINE
  5
20B
  8
1
 10
25269.848383258639
 20
23517.210080071909
 30
0.0
 11
25269.848383258639
 21
23517.210080071909
 31
0.0
  0
LINE
  5
20C
  8
1
 10
26269.848383258632
 20
24816.698394792729
 30
0.0
 11
26269.848383258632
 21
24816.698394792729
 31
0.0
  0
LINE
  5
20D
  8
1
 10
26269.848383258632
 20
24816.698394792729
 30
0.0
 11
26769.848383258632
 21
24816.698394792729
 31
0.0
  0
LINE
  5
20E
  8
1
 10
26269.848383258639
 20
24166.954237432321
 30
0.0
 11
26269.848383258639
 21
24166.954237432321
 31
0.0
  0
LINE
  5
20F
  8
1
 10
26269.848383258632
 20
24166.954237432321
 30
0.0
 11
26769.848383258632
 21
24166.954237432321
 31
0.0
  0
LINE
  5
210
  8
1
 10
26269.848383258639
 20
23517.210080071909
 30
0.0
 11
26269.848383258639
 21
23517.210080071909
 31
0.0
  0
LINE
  5
211
  8
1
 10
26269.848383258632
 20
23517.210080071909
 30
0.0
 11
26769.848383258632
 21
23517.21008007192
 31
0.0
  0
LINE
  5
212
  8
1
 10
26269.848383258639
 20
22867.465922711512
 30
0.0
 11
26269.848383258639
 21
22867.465922711512
 31
0.0
  0
LINE
  5
213
  8
1
 10
26269.848383258639
 20
22867.465922711512
 30
0.0
 11
26769.848383258632
 21
22867.465922711519
 31
0.0
  0
LINE
  5
214
  8
1
 10
30269.848383258632
 20
28715.175552153141
 30
0.0
 11
30269.848383258632
 21
22867.465922711519
 31
0.0
  0
LINE
  5
215
  8
1
 10
30769.848383258621
 20
28715.175552153141
 30
0.0
 11
30769.848383258632
 21
22867.465922711519
 31
0.0
  0
TEXT
  5
216
  8
1
 10
30269.848383258639
 20
28715.175552153141
 30
0.0
 40
500.0
  1
ＭＳゴシックフィット
 50
270.0
 41
0.9000000000000005
  7
KANJI4
 72
     5
 11
30269.848383258639
 21
22867.459816112529
 31
0.0
  0
LINE
  5
217
  8
1
 10
27769.848383258621
 20
28715.175552153141
 30
0.0
 11
27769.848383258632
 21
23517.21008007192
 31
0.0
  0
LINE
  5
218
  8
1
 10
27269.848383258621
 20
28715.175552153141
 30
0.0
 11
27269.848383258632
 21
23517.21008007192
 31
0.0
  0
TEXT
  5
219
  8
1
 10
27269.848383258621
 20
28715.175552153141
 30
0.0
 40
500.0
  1
ＭＳゴシック左上
 50
270.0
  7
KANJI4
 11
27769.848383258621
 21
28715.175552153141
 31
0.0
 73
     3
  0
TEXT
  5
21A
  8
1
 10
28263.50320559365
 20
28715.175552153141
 30
0.0
 40
500.0
  1
ＭＳゴシック中央
 50
270.0
  7
KANJI4
 72
     4
 11
28504.61995686268
 21
26116.190780579542
 31
0.0
  0
LINE
  5
21B
  8
1
 10
28769.848383258621
 20
28715.175552153141
 30
0.0
 11
28769.848383258632
 21
23517.210080071931
 31
0.0
  0
LINE
  5
21C
  8
1
 10
28269.848383258621
 20
28715.175552153141
 30
0.0
 11
28269.848383258632
 21
23517.21008007192
 31
0.0
  0
TEXT
  5
21D
  8
1
 10
29269.848383258632
 20
28715.175552153141
 30
0.0
 40
500.0
  1
ＭＳゴシック右寄せ
 50
270.0
  7
KANJI4
 72
     2
 11
29269.848383258632
 21
22867.459816112529
 31
0.0
  0
LINE
  5
21E
  8
1
 10
29769.848383258621
 20
28715.175552153141
 30
0.0
 11
29769.848383258632
 21
22867.465922711519
 31
0.0
  0
LINE
  5
21F
  8
1
 10
29269.848383258621
 20
28715.175552153141
 30
0.0
 11
29269.848383258632
 21
22867.465922711519
 31
0.0
  0
LINE
  5
220
  8
1
 10
31769.848383258621
 20
28715.175552153141
 30
0.0
 11
31769.848383258621
 21
24816.698394792729
 31
0.0
  0
TEXT
  5
221
  8
1
 10
31269.848383258621
 20
28715.175552153141
 30
0.0
 40
500.0
  1
ＭＳゴシック
 50
270.0
  7
KANJI4
  0
LINE
  5
222
  8
1
 10
31269.848383258621
 20
28715.175552153141
 30
0.0
 11
31269.848383258632
 21
24816.698394792729
 31
0.0
  0
LINE
  5
223
  8
1
 10
31269.848383258621
 20
28715.175552153141
 30
0.0
 11
31769.848383258621
 21
28715.175552153141
 31
0.0
  0
LINE
  5
224
  8
1
 10
27269.848383258621
 20
28715.175552153141
 30
0.0
 11
27769.848383258621
 21
28715.175552153141
 31
0.0
  0
LINE
  5
225
  8
1
 10
28269.848383258621
 20
28715.175552153141
 30
0.0
 11
28769.848383258621
 21
28715.175552153141
 31
0.0
  0
LINE
  5
226
  8
1
 10
30269.848383258632
 20
28715.175552153141
 30
0.0
 11
30769.848383258621
 21
28715.175552153141
 31
0.0
  0
LINE
  5
227
  8
1
 10
29269.848383258621
 20
28715.175552153141
 30
0.0
 11
29769.848383258621
 21
28715.175552153141
 31
0.0
  0
LINE
  5
228
  8
1
 10
31269.848383258621
 20
25466.442552153141
 30
0.0
 11
31769.848383258621
 21
25466.442552153141
 31
0.0
  0
LINE
  5
229
  8
1
 10
31269.848383258621
 20
26116.18915215314
 30
0.0
 11
31769.848383258621
 21
26116.18915215314
 31
0.0
  0
LINE
  5
22A
  8
1
 10
31269.848383258621
 20
26765.935752153138
 30
0.0
 11
31769.848383258621
 21
26765.935752153138
 31
0.0
  0
LINE
  5
22B
  8
1
 10
31269.848383258632
 20
24816.698394792729
 30
0.0
 11
31769.848383258621
 21
24816.698394792729
 31
0.0
  0
LINE
  5
22C
  8
1
 10
31269.848383258621
 20
27415.682352153141
 30
0.0
 11
31769.848383258621
 21
27415.682352153141
 31
0.0
  0
LINE
  5
22D
  8
1
 10
31269.848383258621
 20
28065.428952153139
 30
0.0
 11
31769.848383258621
 21
28065.428952153139
 31
0.0
  0
LINE
  5
22E
  8
1
 10
27269.848383258621
 20
27415.682352153141
 30
0.0
 11
27769.848383258621
 21
27415.682352153141
 31
0.0
  0
LINE
  5
22F
  8
1
 10
27269.848383258621
 20
28065.428952153139
 30
0.0
 11
27769.848383258621
 21
28065.428952153139
 31
0.0
  0
LINE
  5
230
  8
1
 10
27269.848383258621
 20
26765.935752153138
 30
0.0
 11
27769.848383258621
 21
26765.935752153138
 31
0.0
  0
LINE
  5
231
  8
1
 10
28269.848383258621
 20
27415.682352153141
 30
0.0
 11
28769.848383258621
 21
27415.682352153141
 31
0.0
  0
LINE
  5
232
  8
1
 10
28269.848383258621
 20
28065.428952153139
 30
0.0
 11
28769.848383258621
 21
28065.428952153139
 31
0.0
  0
LINE
  5
233
  8
1
 10
28269.848383258621
 20
26765.935752153138
 30
0.0
 11
28769.848383258621
 21
26765.935752153138
 31
0.0
  0
LINE
  5
234
  8
1
 10
27269.848383258621
 20
26116.18915215314
 30
0.0
 11
27769.848383258621
 21
26116.18915215314
 31
0.0
  0
LINE
  5
235
  8
1
 10
27269.848383258621
 20
25466.442552153141
 30
0.0
 11
27769.848383258621
 21
25466.442552153141
 31
0.0
  0
LINE
  5
236
  8
1
 10
28269.848383258621
 20
26116.18915215314
 30
0.0
 11
28769.848383258621
 21
26116.18915215314
 31
0.0
  0
LINE
  5
237
  8
1
 10
28269.848383258621
 20
25466.442552153141
 30
0.0
 11
28769.848383258621
 21
25466.442552153141
 31
0.0
  0
LINE
  5
238
  8
1
 10
29269.848383258621
 20
27415.682352153141
 30
0.0
 11
29769.848383258621
 21
27415.682352153141
 31
0.0
  0
LINE
  5
239
  8
1
 10
29269.848383258621
 20
28065.428952153139
 30
0.0
 11
29769.848383258621
 21
28065.428952153139
 31
0.0
  0
LINE
  5
23A
  8
1
 10
29269.848383258621
 20
26765.935752153138
 30
0.0
 11
29769.848383258621
 21
26765.935752153138
 31
0.0
  0
LINE
  5
23B
  8
1
 10
29269.848383258621
 20
26116.18915215314
 30
0.0
 11
29769.848383258621
 21
26116.18915215314
 31
0.0
  0
LINE
  5
23C
  8
1
 10
29269.848383258621
 20
25466.442552153141
 30
0.0
 11
29769.848383258621
 21
25466.442552153141
 31
0.0
  0
LINE
  5
23D
  8
1
 10
27269.848383258632
 20
24166.954237432328
 30
0.0
 11
27769.848383258632
 21
24166.954237432328
 31
0.0
  0
LINE
  5
23E
  8
1
 10
27269.848383258621
 20
24816.698394792729
 30
0.0
 11
27769.848383258632
 21
24816.698394792729
 31
0.0
  0
LINE
  5
23F
  8
1
 10
27269.848383258632
 20
24816.698394792729
 30
0.0
 11
27269.848383258632
 21
24816.698394792729
 31
0.0
  0
LINE
  5
240
  8
1
 10
27269.848383258632
 20
24166.954237432328
 30
0.0
 11
27269.848383258632
 21
24166.954237432328
 31
0.0
  0
LINE
  5
241
  8
1
 10
27269.848383258632
 20
23517.21008007192
 30
0.0
 11
27769.848383258632
 21
23517.21008007192
 31
0.0
  0
LINE
  5
242
  8
1
 10
27269.848383258639
 20
23517.21008007192
 30
0.0
 11
27269.848383258639
 21
23517.21008007192
 31
0.0
  0
LINE
  5
243
  8
1
 10
28269.848383258621
 20
24816.698394792729
 30
0.0
 11
28769.848383258632
 21
24816.698394792729
 31
0.0
  0
LINE
  5
244
  8
1
 10
28269.848383258632
 20
24166.954237432328
 30
0.0
 11
28769.848383258632
 21
24166.954237432328
 31
0.0
  0
LINE
  5
245
  8
1
 10
28269.848383258632
 20
24816.698394792729
 30
0.0
 11
28269.848383258632
 21
24816.698394792729
 31
0.0
  0
LINE
  5
246
  8
1
 10
28269.848383258632
 20
24166.954237432328
 30
0.0
 11
28269.848383258632
 21
24166.954237432328
 31
0.0
  0
LINE
  5
247
  8
1
 10
28269.848383258632
 20
23517.21008007192
 30
0.0
 11
28769.848383258632
 21
23517.210080071931
 31
0.0
  0
LINE
  5
248
  8
1
 10
28269.848383258639
 20
23517.21008007192
 30
0.0
 11
28269.848383258639
 21
23517.21008007192
 31
0.0
  0
LINE
  5
249
  8
1
 10
29269.848383258632
 20
24166.954237432328
 30
0.0
 11
29769.848383258632
 21
24166.954237432328
 31
0.0
  0
LINE
  5
24A
  8
1
 10
29269.848383258621
 20
24816.698394792729
 30
0.0
 11
29769.848383258621
 21
24816.698394792729
 31
0.0
  0
LINE
  5
24B
  8
1
 10
29269.848383258632
 20
24816.698394792729
 30
0.0
 11
29269.848383258632
 21
24816.698394792729
 31
0.0
  0
LINE
  5
24C
  8
1
 10
29269.848383258632
 20
24166.954237432328
 30
0.0
 11
29269.848383258632
 21
24166.954237432328
 31
0.0
  0
LINE
  5
24D
  8
1
 10
29269.848383258632
 20
23517.21008007192
 30
0.0
 11
29769.848383258632
 21
23517.210080071931
 31
0.0
  0
LINE
  5
24E
  8
1
 10
29269.848383258632
 20
23517.21008007192
 30
0.0
 11
29269.848383258632
 21
23517.21008007192
 31
0.0
  0
LINE
  5
24F
  8
1
 10
31269.848383258632
 20
24816.698394792729
 30
0.0
 11
31269.848383258632
 21
24816.698394792729
 31
0.0
  0
LINE
  5
250
  8
1
 10
30269.848383258632
 20
22867.465922711519
 30
0.0
 11
30769.848383258632
 21
22867.465922711519
 31
0.0
  0
LINE
  5
251
  8
1
 10
29269.848383258632
 20
22867.465922711519
 30
0.0
 11
29769.848383258632
 21
22867.465922711519
 31
0.0
  0
LINE
  5
252
  8
1
 10
29269.848383258639
 20
22867.465922711519
 30
0.0
 11
29269.848383258639
 21
22867.465922711519
 31
0.0
  0
LINE
  5
253
  8
1
 10
30269.848383258639
 20
22867.465922711519
 30
0.0
 11
30269.848383258639
 21
22867.465922711519
 31
0.0
  0
DIMENSION
  5
2AA
  8
0
  2
*D2
 10
36093.929348936741
 20
24502.300187938301
 30
0.0
 11
34175.902204971368
 21
22884.793425970351
 31
0.0
 70
     0
 13
32841.982694166712
 23
20683.17903084397
 33
0.0
 14
36377.51660009945
 24
24218.712936776701
 34
0.0
 50
45.000000000111051
1001
ACAD
1000
DSTYLE
1002
{
1070
    40
1040
100.0
1002
}
  0
DIMENSION
  5
2B7
  8
0
  2
*D3
 10
33272.318231785503
 20
18992.19422490555
 30
0.0
 11
32892.248336899043
 21
19672.784501798342
 31
0.0
 70
     0
 13
32841.982694166712
 23
20683.17903084397
 33
0.0
 14
33902.642865946531
 24
19622.518859064141
 34
0.0
 50
134.9999999998889
1001
ACAD
1000
DSTYLE
1002
{
1070
    40
1040
100.0
1002
}
  0
TEXT
  5
2C4
  8
1
 62
     0
 10
33472.538295501778
 20
20318.356640421549
 30
0.0
 40
500.0
  1
四角形と長さ寸法
 50
45.0
  7
KANJI
  0
DIMENSION
  5
2C5
  8
0
  2
*D4
 10
39061.617553885691
 20
28864.207020387759
 30
0.0
 11
36561.617553885691
 21
29076.707020387759
 31
0.0
 70
     0
 13
34061.617553885691
 23
28463.154083678131
 33
0.0
 14
39061.617553885691
 24
28463.154083678131
 34
0.0
1001
ACAD
1000
DSTYLE
1002
{
1070
    40
1040
100.0
1002
}
  0
POLYLINE
  5
2C6
  8
1
 62
     0
 66
     1
 10
0.0
 20
0.0
 30
0.0
 70
     1
  0
VERTEX
  5
2117
  8
1
 62
     0
 10
34061.617553885691
 20
28463.154083678131
 30
0.0
  0
VERTEX
  5
2118
  8
1
 62
     0
 10
39061.617553885691
 20
28463.154083678131
 30
0.0
  0
VERTEX
  5
2119
  8
1
 62
     0
 10
39061.617553885691
 20
26963.154083678131
 30
0.0
  0
VERTEX
  5
211A
  8
1
 62
     0
 10
34061.617553885691
 20
26963.154083678131
 30
0.0
  0
SEQEND
  5
211B
  8
1
 62
     0
  0
DIMENSION
  5
2C7
  8
0
  2
*D5
 10
33170.203907559007
 20
26963.154083678131
 30
0.0
 11
32957.703907559007
 21
27713.154083678139
 31
0.0
 70
     0
 13
34061.617553885691
 23
28463.154083678131
 33
0.0
 14
34061.617553885691
 24
26963.154083678131
 34
0.0
 50
90.0
1001
ACAD
1000
DSTYLE
1002
{
1070
    40
1040
100.0
1002
}
  0
LINE
  5
328
  8
0
 10
33902.642865946531
 20
19622.518859064141
 30
0.0
 11
37726.652160292258
 21
19622.518859064141
 31
0.0
  0
DIMENSION
  5
329
  8
0
  2
*D6
 10
33902.642865946531
 20
19622.518859064141
 30
0.0
 11
37464.843762206277
 21
21098.03078219252
 31
0.0
 70
     2
 13
33902.642865946531
 23
19622.518859064141
 33
0.0
 14
37726.652160292258
 24
19622.518859064141
 34
0.0
 15
37438.176771879269
 25
23158.052764996879
 35
0.0
 16
37421.702354539237
 26
20565.44800714964
 36
0.0
1001
ACAD
1000
DSTYLE
1002
{
1070
   271
1070
     0
1070
   271
1070
     0
1070
    40
1040
100.0
1070
    79
1070
     2
1070
   271
1070
     0
1002
}
  0
CIRCLE
  5
371
  8
0
 10
33971.719636084497
 20
15041.48750671567
 30
0.0
 40
1808.760328193126
  0
DIMENSION
  5
373
  8
0
  2
*D7
 10
33971.719636084497
 20
13041.48750671567
 30
0.0
 11
33759.21963608449
 21
18228.987506715672
 31
0.0
 70
     3
 15
33971.719636084497
 25
17041.487506715672
 35
0.0
 40
0.0
1001
ACAD
1000
DSTYLE
1002
{
1070
    40
1040
100.0
1070
   288
1070
     1
1002
}
  0
DIMENSION
  5
37C
  8
0
  2
*D8
 10
33971.719636084512
 20
15041.48750671567
 30
0.0
 11
36541.494066613552
 21
16939.268283359561
 31
0.0
 70
     4
 15
35656.025611496458
 25
16119.964850562799
 35
0.0
 40
0.0
1001
ACAD
1000
DSTYLE
1002
{
1070
    40
1040
100.0
1070
   288
1070
     1
1002
}
  0
POLYLINE
  5
3A0
  8
0
 10
35780.47996427762
 20
15041.487506715674
 30
0.0
 66
     1
 70
     8
  0
VERTEX
  8
0
  5
217C
 10
35780.5
 20
15041.5
 30
0.000000
  70
    32
  0
VERTEX
  8
0
  5
217D
 10
35778.3
 20
15090.6
 30
0.000000
  70
    32
  0
VERTEX
  8
0
  5
217E
 10
35771.8
 20
15139.5
 30
0.000000
  70
    32
  0
VERTEX
  8
0
  5
217F
 10
35760.9
 20
15188.2
 30
0.000000
  70
    32
  0
VERTEX
  8
0
  5
2180
 10
35745.7
 20
15236.6
 30
0.000000
  70
    32
  0
VERTEX
  8
0
  5
2181
 10
35726.3
 20
15284.5
 30
0.000000
  70
    32
  0
VERTEX
  8
0
  5
2182
 10
35702.6
 20
15331.8
 30
0.000000
  70
    32
  0
VERTEX
  8
0
  5
2183
 10
35674.7
 20
15378.4
 30
0.000000
  70
    32
  0
VERTEX
  8
0
  5
2184
 10
35642.8
 20
15424.2
 30
0.000000
  70
    32
  0
VERTEX
  8
0
  5
2185
 10
35606.8
 20
15469.0
 30
0.000000
  70
    32
  0
VERTEX
  8
0
  5
2186
 10
35566.9
 20
15512.9
 30
0.000000
  70
    32
  0
VERTEX
  8
0
  5
2187
 10
35523.1
 20
15555.6
 30
0.000000
  70
    32
  0
VERTEX
  8
0
  5
2188
 10
35475.6
 20
15597.1
 30
0.000000
  70
    32
  0
VERTEX
  8
0
  5
2189
 10
35424.5
 20
15637.2
 30
0.000000
  70
    32
  0
VERTEX
  8
0
  5
218A
 10
35369.9
 20
15675.9
 30
0.000000
  70
    32
  0
VERTEX
  8
0
  5
218B
 10
35311.9
 20
15713.0
 30
0.000000
  70
    32
  0
VERTEX
  8
0
  5
218C
 10
35250.7
 20
15748.6
 30
0.000000
  70
    32
  0
VERTEX
  8
0
  5
218D
 10
35186.4
 20
15782.4
 30
0.000000
  70
    32
  0
VERTEX
  8
0
  5
218E
 10
35119.2
 20
15814.5
 30
0.000000
  70
    32
  0
VERTEX
  8
0
  5
218F
 10
35049.2
 20
15844.7
 30
0.000000
  70
    32
  0
VERTEX
  8
0
  5
2190
 10
34976.6
 20
15873.0
 30
0.000000
  70
    32
  0
VERTEX
  8
0
  5
2191
 10
34901.6
 20
15899.2
 30
0.000000
  70
    32
  0
VERTEX
  8
0
  5
2192
 10
34824.4
 20
15923.4
 30
0.000000
  70
    32
  0
VERTEX
  8
0
  5
2193
 10
34745.1
 20
15945.5
 30
0.000000
  70
    32
  0
VERTEX
  8
0
  5
2194
 10
34663.9
 20
15965.4
 30
0.000000
  70
    32
  0
VERTEX
  8
0
  5
2195
 10
34581.1
 20
15983.0
 30
0.000000
  70
    32
  0
VERTEX
  8
0
  5
2196
 10
34496.8
 20
15998.4
 30
0.000000
  70
    32
  0
VERTEX
  8
0
  5
2197
 10
34411.2
 20
16011.5
 30
0.000000
  70
    32
  0
VERTEX
  8
0
  5
2198
 10
34324.6
 20
16022.3
 30
0.000000
  70
    32
  0
VERTEX
  8
0
  5
2199
 10
34237.1
 20
16030.7
 30
0.000000
  70
    32
  0
VERTEX
  8
0
  5
219A
 10
34149.0
 20
16036.7
 30
0.000000
  70
    32
  0
VERTEX
  8
0
  5
219B
 10
34060.5
 20
16040.3
 30
0.000000
  70
    32
  0
VERTEX
  8
0
  5
219C
 10
33971.7
 20
16041.5
 30
0.000000
  70
    32
  0
VERTEX
  8
0
  5
219D
 10
33883.0
 20
16040.3
 30
0.000000
  70
    32
  0
VERTEX
  8
0
  5
219E
 10
33794.4
 20
16036.7
 30
0.000000
  70
    32
  0
VERTEX
  8
0
  5
219F
 10
33706.3
 20
16030.7
 30
0.000000
  70
    32
  0
VERTEX
  8
0
  5
21A0
 10
33618.8
 20
16022.3
 30
0.000000
  70
    32
  0
VERTEX
  8
0
  5
21A1
 10
33532.2
 20
16011.5
 30
0.000000
  70
    32
  0
VERTEX
  8
0
  5
21A2
 10
33446.7
 20
15998.4
 30
0.000000
  70
    32
  0
VERTEX
  8
0
  5
21A3
 10
33362.4
 20
15983.0
 30
0.000000
  70
    32
  0
VERTEX
  8
0
  5
21A4
 10
33279.5
 20
15965.4
 30
0.000000
  70
    32
  0
VERTEX
  8
0
  5
21A5
 10
33198.4
 20
15945.5
 30
0.000000
  70
    32
  0
VERTEX
  8
0
  5
21A6
 10
33119.1
 20
15923.4
 30
0.000000
  70
    32
  0
VERTEX
  8
0
  5
21A7
 10
33041.8
 20
15899.2
 30
0.000000
  70
    32
  0
VERTEX
  8
0
  5
21A8
 10
32966.8
 20
15873.0
 30
0.000000
  70
    32
  0
VERTEX
  8
0
  5
21A9
 10
32894.2
 20
15844.7
 30
0.000000
  70
    32
  0
VERTEX
  8
0
  5
21AA
 10
32824.3
 20
15814.5
 30
0.000000
  70
    32
  0
VERTEX
  8
0
  5
21AB
 10
32757.0
 20
15782.4
 30
0.000000
  70
    32
  0
VERTEX
  8
0
  5
21AC
 10
32692.7
 20
15748.6
 30
0.000000
  70
    32
  0
VERTEX
  8
0
  5
21AD
 10
32631.5
 20
15713.0
 30
0.000000
  70
    32
  0
VERTEX
  8
0
  5
21AE
 10
32573.5
 20
15675.9
 30
0.000000
  70
    32
  0
VERTEX
  8
0
  5
21AF
 10
32518.9
 20
15637.2
 30
0.000000
  70
    32
  0
VERTEX
  8
0
  5
21B0
 10
32467.8
 20
15597.1
 30
0.000000
  70
    32
  0
VERTEX
  8
0
  5
21B1
 10
32420.3
 20
15555.6
 30
0.000000
  70
    32
  0
VERTEX
  8
0
  5
21B2
 10
32376.5
 20
15512.9
 30
0.000000
  70
    32
  0
VERTEX
  8
0
  5
21B3
 10
32336.6
 20
15469.0
 30
0.000000
  70
    32
  0
VERTEX
  8
0
  5
21B4
 10
32300.6
 20
15424.2
 30
0.000000
  70
    32
  0
VERTEX
  8
0
  5
21B5
 10
32268.7
 20
15378.4
 30
0.000000
  70
    32
  0
VERTEX
  8
0
  5
21B6
 10
32240.8
 20
15331.8
 30
0.000000
  70
    32
  0
VERTEX
  8
0
  5
21B7
 10
32217.2
 20
15284.5
 30
0.000000
  70
    32
  0
VERTEX
  8
0
  5
21B8
 10
32197.7
 20
15236.6
 30
0.000000
  70
    32
  0
VERTEX
  8
0
  5
21B9
 10
32182.5
 20
15188.2
 30
0.000000
  70
    32
  0
VERTEX
  8
0
  5
21BA
 10
32171.7
 20
15139.5
 30
0.000000
  70
    32
  0
VERTEX
  8
0
  5
21BB
 10
32165.1
 20
15090.6
 30
0.000000
  70
    32
  0
VERTEX
  8
0
  5
21BC
 10
32163.0
 20
15041.5
 30
0.000000
  70
    32
  0
VERTEX
  8
0
  5
21BD
 10
32165.1
 20
14992.4
 30
0.000000
  70
    32
  0
VERTEX
  8
0
  5
21BE
 10
32171.7
 20
14943.5
 30
0.000000
  70
    32
  0
VERTEX
  8
0
  5
21BF
 10
32182.5
 20
14894.8
 30
0.000000
  70
    32
  0
VERTEX
  8
0
  5
21C0
 10
32197.7
 20
14846.4
 30
0.000000
  70
    32
  0
VERTEX
  8
0
  5
21C1
 10
32217.2
 20
14798.5
 30
0.000000
  70
    32
  0
VERTEX
  8
0
  5
21C2
 10
32240.8
 20
14751.2
 30
0.000000
  70
    32
  0
VERTEX
  8
0
  5
21C3
 10
32268.7
 20
14704.6
 30
0.000000
  70
    32
  0
VERTEX
  8
0
  5
21C4
 10
32300.6
 20
14658.8
 30
0.000000
  70
    32
  0
VERTEX
  8
0
  5
21C5
 10
32336.6
 20
14613.9
 30
0.000000
  70
    32
  0
VERTEX
  8
0
  5
21C6
 10
32376.5
 20
14570.1
 30
0.000000
  70
    32
  0
VERTEX
  8
0
  5
21C7
 10
32420.3
 20
14527.4
 30
0.000000
  70
    32
  0
VERTEX
  8
0
  5
21C8
 10
32467.8
 20
14485.9
 30
0.000000
  70
    32
  0
VERTEX
  8
0
  5
21C9
 10
32518.9
 20
14445.8
 30
0.000000
  70
    32
  0
VERTEX
  8
0
  5
21CA
 10
32573.5
 20
14407.1
 30
0.000000
  70
    32
  0
VERTEX
  8
0
  5
21CB
 10
32631.5
 20
14369.9
 30
0.000000
  70
    32
  0
VERTEX
  8
0
  5
21CC
 10
32692.7
 20
14334.4
 30
0.000000
  70
    32
  0
VERTEX
  8
0
  5
21CD
 10
32757.0
 20
14300.5
 30
0.000000
  70
    32
  0
VERTEX
  8
0
  5
21CE
 10
32824.3
 20
14268.5
 30
0.000000
  70
    32
  0
VERTEX
  8
0
  5
21CF
 10
32894.2
 20
14238.3
 30
0.000000
  70
    32
  0
VERTEX
  8
0
  5
21D0
 10
32966.8
 20
14210.0
 30
0.000000
  70
    32
  0
VERTEX
  8
0
  5
21D1
 10
33041.8
 20
14183.8
 30
0.000000
  70
    32
  0
VERTEX
  8
0
  5
21D2
 10
33119.1
 20
14159.6
 30
0.000000
  70
    32
  0
VERTEX
  8
0
  5
21D3
 10
33198.4
 20
14137.5
 30
0.000000
  70
    32
  0
VERTEX
  8
0
  5
21D4
 10
33279.5
 20
14117.6
 30
0.000000
  70
    32
  0
VERTEX
  8
0
  5
21D5
 10
33362.4
 20
14099.9
 30
0.000000
  70
    32
  0
VERTEX
  8
0
  5
21D6
 10
33446.7
 20
14084.5
 30
0.000000
  70
    32
  0
VERTEX
  8
0
  5
21D7
 10
33532.2
 20
14071.5
 30
0.000000
  70
    32
  0
VERTEX
  8
0
  5
21D8
 10
33618.8
 20
14060.7
 30
0.000000
  70
    32
  0
VERTEX
  8
0
  5
21D9
 10
33706.3
 20
14052.3
 30
0.000000
  70
    32
  0
VERTEX
  8
0
  5
21DA
 10
33794.4
 20
14046.3
 30
0.000000
  70
    32
  0
VERTEX
  8
0
  5
21DB
 10
33883.0
 20
14042.7
 30
0.000000
  70
    32
  0
VERTEX
  8
0
  5
21DC
 10
33971.7
 20
14041.5
 30
0.000000
  70
    32
  0
VERTEX
  8
0
  5
21DD
 10
34060.5
 20
14042.7
 30
0.000000
  70
    32
  0
VERTEX
  8
0
  5
21DE
 10
34149.0
 20
14046.3
 30
0.000000
  70
    32
  0
VERTEX
  8
0
  5
21DF
 10
34237.1
 20
14052.3
 30
0.000000
  70
    32
  0
VERTEX
  8
0
  5
21E0
 10
34324.6
 20
14060.7
 30
0.000000
  70
    32
  0
VERTEX
  8
0
  5
21E1
 10
34411.2
 20
14071.5
 30
0.000000
  70
    32
  0
VERTEX
  8
0
  5
21E2
 10
34496.8
 20
14084.5
 30
0.000000
  70
    32
  0
VERTEX
  8
0
  5
21E3
 10
34581.1
 20
14099.9
 30
0.000000
  70
    32
  0
VERTEX
  8
0
  5
21E4
 10
34663.9
 20
14117.6
 30
0.000000
  70
    32
  0
VERTEX
  8
0
  5
21E5
 10
34745.1
 20
14137.5
 30
0.000000
  70
    32
  0
VERTEX
  8
0
  5
21E6
 10
34824.4
 20
14159.6
 30
0.000000
  70
    32
  0
VERTEX
  8
0
  5
21E7
 10
34901.6
 20
14183.8
 30
0.000000
  70
    32
  0
VERTEX
  8
0
  5
21E8
 10
34976.6
 20
14210.0
 30
0.000000
  70
    32
  0
VERTEX
  8
0
  5
21E9
 10
35049.2
 20
14238.3
 30
0.000000
  70
    32
  0
VERTEX
  8
0
  5
21EA
 10
35119.2
 20
14268.5
 30
0.000000
  70
    32
  0
VERTEX
  8
0
  5
21EB
 10
35186.4
 20
14300.5
 30
0.000000
  70
    32
  0
VERTEX
  8
0
  5
21EC
 10
35250.7
 20
14334.4
 30
0.000000
  70
    32
  0
VERTEX
  8
0
  5
21ED
 10
35311.9
 20
14369.9
 30
0.000000
  70
    32
  0
VERTEX
  8
0
  5
21EE
 10
35369.9
 20
14407.1
 30
0.000000
  70
    32
  0
VERTEX
  8
0
  5
21EF
 10
35424.5
 20
14445.8
 30
0.000000
  70
    32
  0
VERTEX
  8
0
  5
21F0
 10
35475.6
 20
14485.9
 30
0.000000
  70
    32
  0
VERTEX
  8
0
  5
21F1
 10
35523.1
 20
14527.4
 30
0.000000
  70
    32
  0
VERTEX
  8
0
  5
21F2
 10
35566.9
 20
14570.1
 30
0.000000
  70
    32
  0
VERTEX
  8
0
  5
21F3
 10
35606.8
 20
14613.9
 30
0.000000
  70
    32
  0
VERTEX
  8
0
  5
21F4
 10
35642.8
 20
14658.8
 30
0.000000
  70
    32
  0
VERTEX
  8
0
  5
21F5
 10
35674.7
 20
14704.6
 30
0.000000
  70
    32
  0
VERTEX
  8
0
  5
21F6
 10
35702.6
 20
14751.2
 30
0.000000
  70
    32
  0
VERTEX
  8
0
  5
21F7
 10
35726.3
 20
14798.5
 30
0.000000
  70
    32
  0
VERTEX
  8
0
  5
21F8
 10
35745.7
 20
14846.4
 30
0.000000
  70
    32
  0
VERTEX
  8
0
  5
21F9
 10
35760.9
 20
14894.8
 30
0.000000
  70
    32
  0
VERTEX
  8
0
  5
21FA
 10
35771.8
 20
14943.5
 30
0.000000
  70
    32
  0
VERTEX
  8
0
  5
21FB
 10
35778.3
 20
14992.4
 30
0.000000
  70
    32
  0
VERTEX
  8
0
  5
21FC
 10
35780.5
 20
15041.5
 30
0.000000
  70
    32
  0
SEQEND
  8
0
  5
21FD
  0
LINE
  5
3EB
  8
0
 10
32162.959307891371
 20
10886.19105157217
 30
0.0
 11
40162.959307891368
 21
10886.19105157217
 31
0.0
  0
LINE
  5
3EC
  8
0
 10
32162.959307891371
 20
11886.19105157217
 30
0.0
 11
32162.959307891371
 21
9886.1910515721756
 31
0.0
  0
LINE
  5
3EE
  8
0
 10
33162.959307891368
 20
11886.19105157217
 30
0.0
 11
33162.959307891368
 21
9886.1910515721756
 31
0.0
  0
LINE
  5
3EF
  8
0
 10
34162.959307891368
 20
11886.19105157217
 30
0.0
 11
34162.959307891368
 21
9886.1910515721756
 31
0.0
  0
LINE
  5
3F0
  8
0
 10
32162.959307891371
 20
11886.19105157217
 30
0.0
 11
40162.959307891368
 21
11886.19105157217
 31
0.0
  0
LINE
  5
3F1
  8
0
 10
32162.959307891371
 20
9886.1910515721756
 30
0.0
 11
40162.959307891368
 21
9886.1910515721756
 31
0.0
  0
LINE
  5
3F2
  8
0
 10
35162.959307891368
 20
11886.19105157217
 30
0.0
 11
35162.959307891368
 21
9886.1910515721756
 31
0.0
  0
LINE
  5
3F3
  8
0
 10
36162.959307891368
 20
11886.19105157217
 30
0.0
 11
36162.959307891368
 21
9886.1910515721756
 31
0.0
  0
LINE
  5
3F4
  8
0
 10
37162.959307891368
 20
11886.19105157217
 30
0.0
 11
37162.959307891368
 21
9886.1910515721756
 31
0.0
  0
LINE
  5
3F5
  8
0
 10
38162.959307891368
 20
11886.19105157217
 30
0.0
 11
38162.959307891368
 21
9886.1910515721756
 31
0.0
  0
LINE
  5
3F7
  8
0
 10
40162.959307891368
 20
11886.19105157217
 30
0.0
 11
40162.959307891368
 21
9886.1910515721756
 31
0.0
  0
LINE
  5
3F8
  8
0
 10
39162.959307891368
 20
11886.19105157217
 30
0.0
 11
39162.959307891368
 21
9886.1910515721756
 31
0.0
  0
POLYLINE
  8
0
  5
21FE
  66
     1
 10
0.000000
 20
0.000000
 30
0.000000
  70
     8
  0
VERTEX
  8
0
  5
21FF
 10
32163.0
 20
10886.2
 30
0.000000
  70
    32
  0
VERTEX
  8
0
  5
2200
 10
32185.7
 20
10920.3
 30
0.000000
  70
    32
  0
VERTEX
  8
0
  5
2201
 10
32208.4
 20
10954.3
 30
0.000000
  70
    32
  0
VERTEX
  8
0
  5
2202
 10
32231.1
 20
10988.3
 30
0.000000
  70
    32
  0
VERTEX
  8
0
  5
2203
 10
32253.9
 20
11022.2
 30
0.000000
  70
    32
  0
VERTEX
  8
0
  5
2204
 10
32276.6
 20
11055.9
 30
0.000000
  70
    32
  0
VERTEX
  8
0
  5
2205
 10
32299.3
 20
11089.4
 30
0.000000
  70
    32
  0
VERTEX
  8
0
  5
2206
 10
32322.0
 20
11122.8
 30
0.000000
  70
    32
  0
VERTEX
  8
0
  5
2207
 10
32344.7
 20
11155.9
 30
0.000000
  70
    32
  0
VERTEX
  8
0
  5
2208
 10
32367.5
 20
11188.7
 30
0.000000
  70
    32
  0
VERTEX
  8
0
  5
2209
 10
32390.2
 20
11221.2
 30
0.000000
  70
    32
  0
VERTEX
  8
0
  5
220A
 10
32412.9
 20
11253.3
 30
0.000000
  70
    32
  0
VERTEX
  8
0
  5
220B
 10
32435.6
 20
11285.1
 30
0.000000
  70
    32
  0
VERTEX
  8
0
  5
220C
 10
32458.4
 20
11316.4
 30
0.000000
  70
    32
  0
VERTEX
  8
0
  5
220D
 10
32481.1
 20
11347.3
 30
0.000000
  70
    32
  0
VERTEX
  8
0
  5
220E
 10
32503.8
 20
11377.7
 30
0.000000
  70
    32
  0
VERTEX
  8
0
  5
220F
 10
32526.5
 20
11407.5
 30
0.000000
  70
    32
  0
VERTEX
  8
0
  5
2210
 10
32549.2
 20
11436.8
 30
0.000000
  70
    32
  0
VERTEX
  8
0
  5
2211
 10
32572.0
 20
11465.5
 30
0.000000
  70
    32
  0
VERTEX
  8
0
  5
2212
 10
32594.7
 20
11493.6
 30
0.000000
  70
    32
  0
VERTEX
  8
0
  5
2213
 10
32617.4
 20
11520.9
 30
0.000000
  70
    32
  0
VERTEX
  8
0
  5
2214
 10
32640.1
 20
11547.6
 30
0.000000
  70
    32
  0
VERTEX
  8
0
  5
2215
 10
32662.9
 20
11573.6
 30
0.000000
  70
    32
  0
VERTEX
  8
0
  5
2216
 10
32685.6
 20
11598.8
 30
0.000000
  70
    32
  0
VERTEX
  8
0
  5
2217
 10
32708.3
 20
11623.1
 30
0.000000
  70
    32
  0
VERTEX
  8
0
  5
2218
 10
32731.0
 20
11646.6
 30
0.000000
  70
    32
  0
VERTEX
  8
0
  5
2219
 10
32753.8
 20
11669.3
 30
0.000000
  70
    32
  0
VERTEX
  8
0
  5
221A
 10
32776.5
 20
11691.0
 30
0.000000
  70
    32
  0
VERTEX
  8
0
  5
221B
 10
32799.2
 20
11711.8
 30
0.000000
  70
    32
  0
VERTEX
  8
0
  5
221C
 10
32821.9
 20
11731.6
 30
0.000000
  70
    32
  0
VERTEX
  8
0
  5
221D
 10
32844.6
 20
11750.3
 30
0.000000
  70
    32
  0
VERTEX
  8
0
  5
221E
 10
32867.4
 20
11768.0
 30
0.000000
  70
    32
  0
VERTEX
  8
0
  5
221F
 10
32890.1
 20
11784.7
 30
0.000000
  70
    32
  0
VERTEX
  8
0
  5
2220
 10
32912.8
 20
11800.2
 30
0.000000
  70
    32
  0
VERTEX
  8
0
  5
2221
 10
32935.5
 20
11814.5
 30
0.000000
  70
    32
  0
VERTEX
  8
0
  5
2222
 10
32958.3
 20
11827.6
 30
0.000000
  70
    32
  0
VERTEX
  8
0
  5
2223
 10
32981.0
 20
11839.5
 30
0.000000
  70
    32
  0
VERTEX
  8
0
  5
2224
 10
33003.7
 20
11850.2
 30
0.000000
  70
    32
  0
VERTEX
  8
0
  5
2225
 10
33026.4
 20
11859.5
 30
0.000000
  70
    32
  0
VERTEX
  8
0
  5
2226
 10
33049.2
 20
11867.5
 30
0.000000
  70
    32
  0
VERTEX
  8
0
  5
2227
 10
33071.9
 20
11874.1
 30
0.000000
  70
    32
  0
VERTEX
  8
0
  5
2228
 10
33094.6
 20
11879.3
 30
0.000000
  70
    32
  0
VERTEX
  8
0
  5
2229
 10
33117.3
 20
11883.1
 30
0.000000
  70
    32
  0
VERTEX
  8
0
  5
222A
 10
33140.0
 20
11885.4
 30
0.000000
  70
    32
  0
VERTEX
  8
0
  5
222B
 10
33162.8
 20
11886.2
 30
0.000000
  70
    32
  0
VERTEX
  8
0
  5
222C
 10
33185.5
 20
11885.4
 30
0.000000
  70
    32
  0
VERTEX
  8
0
  5
222D
 10
33208.2
 20
11883.2
 30
0.000000
  70
    32
  0
VERTEX
  8
0
  5
222E
 10
33230.9
 20
11879.4
 30
0.000000
  70
    32
  0
VERTEX
  8
0
  5
222F
 10
33253.7
 20
11874.2
 30
0.000000
  70
    32
  0
VERTEX
  8
0
  5
2230
 10
33276.4
 20
11867.6
 30
0.000000
  70
    32
  0
VERTEX
  8
0
  5
2231
 10
33299.1
 20
11859.7
 30
0.000000
  70
    32
  0
VERTEX
  8
0
  5
2232
 10
33321.8
 20
11850.3
 30
0.000000
  70
    32
  0
VERTEX
  8
0
  5
2233
 10
33344.5
 20
11839.7
 30
0.000000
  70
    32
  0
VERTEX
  8
0
  5
2234
 10
33367.3
 20
11827.8
 30
0.000000
  70
    32
  0
VERTEX
  8
0
  5
2235
 10
33390.0
 20
11814.7
 30
0.000000
  70
    32
  0
VERTEX
  8
0
  5
2236
 10
33412.7
 20
11800.4
 30
0.000000
  70
    32
  0
VERTEX
  8
0
  5
2237
 10
33435.4
 20
11784.9
 30
0.000000
  70
    32
  0
VERTEX
  8
0
  5
2238
 10
33458.2
 20
11768.3
 30
0.000000
  70
    32
  0
VERTEX
  8
0
  5
2239
 10
33480.9
 20
11750.6
 30
0.000000
  70
    32
  0
VERTEX
  8
0
  5
223A
 10
33503.6
 20
11731.9
 30
0.000000
  70
    32
  0
VERTEX
  8
0
  5
223B
 10
33526.3
 20
11712.1
 30
0.000000
  70
    32
  0
VERTEX
  8
0
  5
223C
 10
33549.1
 20
11691.4
 30
0.000000
  70
    32
  0
VERTEX
  8
0
  5
223D
 10
33571.8
 20
11669.7
 30
0.000000
  70
    32
  0
VERTEX
  8
0
  5
223E
 10
33594.5
 20
11647.0
 30
0.000000
  70
    32
  0
VERTEX
  8
0
  5
223F
 10
33617.2
 20
11623.5
 30
0.000000
  70
    32
  0
VERTEX
  8
0
  5
2240
 10
33639.9
 20
11599.2
 30
0.000000
  70
    32
  0
VERTEX
  8
0
  5
2241
 10
33662.7
 20
11574.0
 30
0.000000
  70
    32
  0
VERTEX
  8
0
  5
2242
 10
33685.4
 20
11548.1
 30
0.000000
  70
    32
  0
VERTEX
  8
0
  5
2243
 10
33708.1
 20
11521.4
 30
0.000000
  70
    32
  0
VERTEX
  8
0
  5
2244
 10
33730.8
 20
11494.0
 30
0.000000
  70
    32
  0
VERTEX
  8
0
  5
2245
 10
33753.6
 20
11466.0
 30
0.000000
  70
    32
  0
VERTEX
  8
0
  5
2246
 10
33776.3
 20
11437.3
 30
0.000000
  70
    32
  0
VERTEX
  8
0
  5
2247
 10
33799.0
 20
11408.0
 30
0.000000
  70
    32
  0
VERTEX
  8
0
  5
2248
 10
33821.7
 20
11378.2
 30
0.000000
  70
    32
  0
VERTEX
  8
0
  5
2249
 10
33844.5
 20
11347.8
 30
0.000000
  70
    32
  0
VERTEX
  8
0
  5
224A
 10
33867.2
 20
11316.9
 30
0.000000
  70
    32
  0
VERTEX
  8
0
  5
224B
 10
33889.9
 20
11285.6
 30
0.000000
  70
    32
  0
VERTEX
  8
0
  5
224C
 10
33912.6
 20
11253.9
 30
0.000000
  70
    32
  0
VERTEX
  8
0
  5
224D
 10
33935.3
 20
11221.7
 30
0.000000
  70
    32
  0
VERTEX
  8
0
  5
224E
 10
33958.1
 20
11189.2
 30
0.000000
  70
    32
  0
VERTEX
  8
0
  5
224F
 10
33980.8
 20
11156.4
 30
0.000000
  70
    32
  0
VERTEX
  8
0
  5
2250
 10
34003.5
 20
11123.3
 30
0.000000
  70
    32
  0
VERTEX
  8
0
  5
2251
 10
34026.2
 20
11090.0
 30
0.000000
  70
    32
  0
VERTEX
  8
0
  5
2252
 10
34049.0
 20
11056.5
 30
0.000000
  70
    32
  0
VERTEX
  8
0
  5
2253
 10
34071.7
 20
11022.7
 30
0.000000
  70
    32
  0
VERTEX
  8
0
  5
2254
 10
34094.4
 20
10988.9
 30
0.000000
  70
    32
  0
VERTEX
  8
0
  5
2255
 10
34117.1
 20
10954.9
 30
0.000000
  70
    32
  0
VERTEX
  8
0
  5
2256
 10
34139.8
 20
10920.9
 30
0.000000
  70
    32
  0
VERTEX
  8
0
  5
2257
 10
34162.6
 20
10886.8
 30
0.000000
  70
    32
  0
VERTEX
  8
0
  5
2258
 10
34185.3
 20
10852.7
 30
0.000000
  70
    32
  0
VERTEX
  8
0
  5
2259
 10
34208.0
 20
10818.6
 30
0.000000
  70
    32
  0
VERTEX
  8
0
  5
225A
 10
34230.7
 20
10784.7
 30
0.000000
  70
    32
  0
VERTEX
  8
0
  5
225B
 10
34253.5
 20
10750.8
 30
0.000000
  70
    32
  0
VERTEX
  8
0
  5
225C
 10
34276.2
 20
10717.1
 30
0.000000
  70
    32
  0
VERTEX
  8
0
  5
225D
 10
34298.9
 20
10683.5
 30
0.000000
  70
    32
  0
VERTEX
  8
0
  5
225E
 10
34321.6
 20
10650.2
 30
0.000000
  70
    32
  0
VERTEX
  8
0
  5
225F
 10
34344.4
 20
10617.1
 30
0.000000
  70
    32
  0
VERTEX
  8
0
  5
2260
 10
34367.1
 20
10584.3
 30
0.000000
  70
    32
  0
VERTEX
  8
0
  5
2261
 10
34389.8
 20
10551.8
 30
0.000000
  70
    32
  0
VERTEX
  8
0
  5
2262
 10
34412.5
 20
10519.6
 30
0.000000
  70
    32
  0
VERTEX
  8
0
  5
2263
 10
34435.2
 20
10487.9
 30
0.000000
  70
    32
  0
VERTEX
  8
0
  5
2264
 10
34458.0
 20
10456.5
 30
0.000000
  70
    32
  0
VERTEX
  8
0
  5
2265
 10
34480.7
 20
10425.6
 30
0.000000
  70
    32
  0
VERTEX
  8
0
  5
2266
 10
34503.4
 20
10395.2
 30
0.000000
  70
    32
  0
VERTEX
  8
0
  5
2267
 10
34526.1
 20
10365.4
 30
0.000000
  70
    32
  0
VERTEX
  8
0
  5
2268
 10
34548.9
 20
10336.1
 30
0.000000
  70
    32
  0
VERTEX
  8
0
  5
2269
 10
34571.6
 20
10307.4
 30
0.000000
  70
    32
  0
VERTEX
  8
0
  5
226A
 10
34594.3
 20
10279.3
 30
0.000000
  70
    32
  0
VERTEX
  8
0
  5
226B
 10
34617.0
 20
10251.9
 30
0.000000
  70
    32
  0
VERTEX
  8
0
  5
226C
 10
34639.7
 20
10225.2
 30
0.000000
  70
    32
  0
VERTEX
  8
0
  5
226D
 10
34662.5
 20
10199.2
 30
0.000000
  70
    32
  0
VERTEX
  8
0
  5
226E
 10
34685.2
 20
10174.0
 30
0.000000
  70
    32
  0
VERTEX
  8
0
  5
226F
 10
34707.9
 20
10149.7
 30
0.000000
  70
    32
  0
VERTEX
  8
0
  5
2270
 10
34730.6
 20
10126.1
 30
0.000000
  70
    32
  0
VERTEX
  8
0
  5
2271
 10
34753.4
 20
10103.5
 30
0.000000
  70
    32
  0
VERTEX
  8
0
  5
2272
 10
34776.1
 20
10081.7
 30
0.000000
  70
    32
  0
VERTEX
  8
0
  5
2273
 10
34798.8
 20
10061.0
 30
0.000000
  70
    32
  0
VERTEX
  8
0
  5
2274
 10
34821.5
 20
10041.1
 30
0.000000
  70
    32
  0
VERTEX
  8
0
  5
2275
 10
34844.2
 20
10022.4
 30
0.000000
  70
    32
  0
VERTEX
  8
0
  5
2276
 10
34867.0
 20
10004.6
 30
0.000000
  70
    32
  0
VERTEX
  8
0
  5
2277
 10
34889.7
 20
9987.99
 30
0.000000
  70
    32
  0
VERTEX
  8
0
  5
2278
 10
34912.4
 20
9972.48
 30
0.000000
  70
    32
  0
VERTEX
  8
0
  5
2279
 10
34935.1
 20
9958.13
 30
0.000000
  70
    32
  0
VERTEX
  8
0
  5
227A
 10
34957.9
 20
9944.97
 30
0.000000
  70
    32
  0
VERTEX
  8
0
  5
227B
 10
34980.6
 20
9933.04
 30
0.000000
  70
    32
  0
VERTEX
  8
0
  5
227C
 10
35003.3
 20
9922.39
 30
0.000000
  70
    32
  0
VERTEX
  8
0
  5
227D
 10
35026.0
 20
9913.03
 30
0.000000
  70
    32
  0
VERTEX
  8
0
  5
227E
 10
35048.8
 20
9905.01
 30
0.000000
  70
    32
  0
VERTEX
  8
0
  5
227F
 10
35071.5
 20
9898.36
 30
0.000000
  70
    32
  0
VERTEX
  8
0
  5
2280
 10
35094.2
 20
9893.12
 30
0.000000
  70
    32
  0
VERTEX
  8
0
  5
2281
 10
35116.9
 20
9889.32
 30
0.000000
  70
    32
  0
VERTEX
  8
0
  5
2282
 10
35139.7
 20
9887.00
 30
0.000000
  70
    32
  0
VERTEX
  8
0
  5
2283
 10
35162.4
 20
9886.19
 30
0.000000
  70
    32
  0
VERTEX
  8
0
  5
2284
 10
35185.1
 20
9886.92
 30
0.000000
  70
    32
  0
VERTEX
  8
0
  5
2285
 10
35207.8
 20
9889.17
 30
0.000000
  70
    32
  0
VERTEX
  8
0
  5
2286
 10
35230.6
 20
9892.89
 30
0.000000
  70
    32
  0
VERTEX
  8
0
  5
2287
 10
35253.3
 20
9898.06
 30
0.000000
  70
    32
  0
VERTEX
  8
0
  5
2288
 10
35276.0
 20
9904.63
 30
0.000000
  70
    32
  0
VERTEX
  8
0
  5
2289
 10
35298.7
 20
9912.58
 30
0.000000
  70
    32
  0
VERTEX
  8
0
  5
228A
 10
35321.4
 20
9921.87
 30
0.000000
  70
    32
  0
VERTEX
  8
0
  5
228B
 10
35344.2
 20
9932.47
 30
0.000000
  70
    32
  0
VERTEX
  8
0
  5
228C
 10
35366.9
 20
9944.33
 30
0.000000
  70
    32
  0
VERTEX
  8
0
  5
228D
 10
35389.6
 20
9957.42
 30
0.000000
  70
    32
  0
VERTEX
  8
0
  5
228E
 10
35412.3
 20
9971.71
 30
0.000000
  70
    32
  0
VERTEX
  8
0
  5
228F
 10
35435.1
 20
9987.17
 30
0.000000
  70
    32
  0
VERTEX
  8
0
  5
2290
 10
35457.8
 20
10003.8
 30
0.000000
  70
    32
  0
VERTEX
  8
0
  5
2291
 10
35480.5
 20
10021.4
 30
0.000000
  70
    32
  0
VERTEX
  8
0
  5
2292
 10
35503.2
 20
10040.2
 30
0.000000
  70
    32
  0
VERTEX
  8
0
  5
2293
 10
35526.0
 20
10059.9
 30
0.000000
  70
    32
  0
VERTEX
  8
0
  5
2294
 10
35548.7
 20
10080.7
 30
0.000000
  70
    32
  0
VERTEX
  8
0
  5
2295
 10
35571.4
 20
10102.3
 30
0.000000
  70
    32
  0
VERTEX
  8
0
  5
2296
 10
35594.1
 20
10125.0
 30
0.000000
  70
    32
  0
VERTEX
  8
0
  5
2297
 10
35616.9
 20
10148.4
 30
0.000000
  70
    32
  0
VERTEX
  8
0
  5
2298
 10
35639.6
 20
10172.8
 30
0.000000
  70
    32
  0
VERTEX
  8
0
  5
2299
 10
35662.3
 20
10197.9
 30
0.000000
  70
    32
  0
VERTEX
  8
0
  5
229A
 10
35685.0
 20
10223.8
 30
0.000000
  70
    32
  0
VERTEX
  8
0
  5
229B
 10
35707.8
 20
10250.5
 30
0.000000
  70
    32
  0
VERTEX
  8
0
  5
229C
 10
35730.5
 20
10277.9
 30
0.000000
  70
    32
  0
VERTEX
  8
0
  5
229D
 10
35753.2
 20
10305.9
 30
0.000000
  70
    32
  0
VERTEX
  8
0
  5
229E
 10
35775.9
 20
10334.6
 30
0.000000
  70
    32
  0
VERTEX
  8
0
  5
229F
 10
35798.7
 20
10363.9
 30
0.000000
  70
    32
  0
VERTEX
  8
0
  5
22A0
 10
35821.4
 20
10393.7
 30
0.000000
  70
    32
  0
VERTEX
  8
0
  5
22A1
 10
35844.1
 20
10424.1
 30
0.000000
  70
    32
  0
VERTEX
  8
0
  5
22A2
 10
35866.8
 20
10454.9
 30
0.000000
  70
    32
  0
VERTEX
  8
0
  5
22A3
 10
35889.5
 20
10486.2
 30
0.000000
  70
    32
  0
VERTEX
  8
0
  5
22A4
 10
35912.3
 20
10518.0
 30
0.000000
  70
    32
  0
VERTEX
  8
0
  5
22A5
 10
35935.0
 20
10550.1
 30
0.000000
  70
    32
  0
VERTEX
  8
0
  5
22A6
 10
35957.7
 20
10582.6
 30
0.000000
  70
    32
  0
VERTEX
  8
0
  5
22A7
 10
35980.4
 20
10615.4
 30
0.000000
  70
    32
  0
VERTEX
  8
0
  5
22A8
 10
36003.2
 20
10648.5
 30
0.000000
  70
    32
  0
VERTEX
  8
0
  5
22A9
 10
36025.9
 20
10681.8
 30
0.000000
  70
    32
  0
VERTEX
  8
0
  5
22AA
 10
36048.6
 20
10715.4
 30
0.000000
  70
    32
  0
VERTEX
  8
0
  5
22AB
 10
36071.3
 20
10749.1
 30
0.000000
  70
    32
  0
VERTEX
  8
0
  5
22AC
 10
36094.0
 20
10782.9
 30
0.000000
  70
    32
  0
VERTEX
  8
0
  5
22AD
 10
36116.7
 20
10816.9
 30
0.000000
  70
    32
  0
VERTEX
  8
0
  5
22AE
 10
36139.5
 20
10851.0
 30
0.000000
  70
    32
  0
VERTEX
  8
0
  5
22AF
 10
36162.2
 20
10885.0
 30
0.000000
  70
    32
  0
VERTEX
  8
0
  5
22B0
 10
36184.9
 20
10919.1
 30
0.000000
  70
    32
  0
VERTEX
  8
0
  5
22B1
 10
36207.6
 20
10953.2
 30
0.000000
  70
    32
  0
VERTEX
  8
0
  5
22B2
 10
36230.3
 20
10987.1
 30
0.000000
  70
    32
  0
VERTEX
  8
0
  5
22B3
 10
36253.1
 20
11021.0
 30
0.000000
  70
    32
  0
VERTEX
  8
0
  5
22B4
 10
36275.8
 20
11054.7
 30
0.000000
  70
    32
  0
VERTEX
  8
0
  5
22B5
 10
36298.5
 20
11088.3
 30
0.000000
  70
    32
  0
VERTEX
  8
0
  5
22B6
 10
36321.2
 20
11121.6
 30
0.000000
  70
    32
  0
VERTEX
  8
0
  5
22B7
 10
36343.9
 20
11154.7
 30
0.000000
  70
    32
  0
VERTEX
  8
0
  5
22B8
 10
36366.6
 20
11187.6
 30
0.000000
  70
    32
  0
VERTEX
  8
0
  5
22B9
 10
36389.3
 20
11220.1
 30
0.000000
  70
    32
  0
VERTEX
  8
0
  5
22BA
 10
36412.1
 20
11252.2
 30
0.000000
  70
    32
  0
VERTEX
  8
0
  5
22BB
 10
36434.8
 20
11284.0
 30
0.000000
  70
    32
  0
VERTEX
  8
0
  5
22BC
 10
36457.5
 20
11315.3
 30
0.000000
  70
    32
  0
VERTEX
  8
0
  5
22BD
 10
36480.2
 20
11346.2
 30
0.000000
  70
    32
  0
VERTEX
  8
0
  5
22BE
 10
36502.9
 20
11376.6
 30
0.000000
  70
    32
  0
VERTEX
  8
0
  5
22BF
 10
36525.6
 20
11406.5
 30
0.000000
  70
    32
  0
VERTEX
  8
0
  5
22C0
 10
36548.4
 20
11435.8
 30
0.000000
  70
    32
  0
VERTEX
  8
0
  5
22C1
 10
36571.1
 20
11464.5
 30
0.000000
  70
    32
  0
VERTEX
  8
0
  5
22C2
 10
36593.8
 20
11492.6
 30
0.000000
  70
    32
  0
VERTEX
  8
0
  5
22C3
 10
36616.5
 20
11520.0
 30
0.000000
  70
    32
  0
VERTEX
  8
0
  5
22C4
 10
36639.2
 20
11546.7
 30
0.000000
  70
    32
  0
VERTEX
  8
0
  5
22C5
 10
36662.0
 20
11572.7
 30
0.000000
  70
    32
  0
VERTEX
  8
0
  5
22C6
 10
36684.7
 20
11597.9
 30
0.000000
  70
    32
  0
VERTEX
  8
0
  5
22C7
 10
36707.4
 20
11622.3
 30
0.000000
  70
    32
  0
VERTEX
  8
0
  5
22C8
 10
36730.1
 20
11645.9
 30
0.000000
  70
    32
  0
VERTEX
  8
0
  5
22C9
 10
36752.8
 20
11668.5
 30
0.000000
  70
    32
  0
VERTEX
  8
0
  5
22CA
 10
36775.6
 20
11690.3
 30
0.000000
  70
    32
  0
VERTEX
  8
0
  5
22CB
 10
36798.3
 20
11711.1
 30
0.000000
  70
    32
  0
VERTEX
  8
0
  5
22CC
 10
36821.0
 20
11730.9
 30
0.000000
  70
    32
  0
VERTEX
  8
0
  5
22CD
 10
36843.7
 20
11749.7
 30
0.000000
  70
    32
  0
VERTEX
  8
0
  5
22CE
 10
36866.5
 20
11767.5
 30
0.000000
  70
    32
  0
VERTEX
  8
0
  5
22CF
 10
36889.2
 20
11784.1
 30
0.000000
  70
    32
  0
VERTEX
  8
0
  5
22D0
 10
36911.9
 20
11799.7
 30
0.000000
  70
    32
  0
VERTEX
  8
0
  5
22D1
 10
36934.6
 20
11814.0
 30
0.000000
  70
    32
  0
VERTEX
  8
0
  5
22D2
 10
36957.4
 20
11827.2
 30
0.000000
  70
    32
  0
VERTEX
  8
0
  5
22D3
 10
36980.1
 20
11839.2
 30
0.000000
  70
    32
  0
VERTEX
  8
0
  5
22D4
 10
37002.8
 20
11849.8
 30
0.000000
  70
    32
  0
VERTEX
  8
0
  5
22D5
 10
37025.6
 20
11859.2
 30
0.000000
  70
    32
  0
VERTEX
  8
0
  5
22D6
 10
37048.3
 20
11867.3
 30
0.000000
  70
    32
  0
VERTEX
  8
0
  5
22D7
 10
37071.0
 20
11873.9
 30
0.000000
  70
    32
  0
VERTEX
  8
0
  5
22D8
 10
37093.8
 20
11879.2
 30
0.000000
  70
    32
  0
VERTEX
  8
0
  5
22D9
 10
37116.5
 20
11883.0
 30
0.000000
  70
    32
  0
VERTEX
  8
0
  5
22DA
 10
37139.2
 20
11885.4
 30
0.000000
  70
    32
  0
VERTEX
  8
0
  5
22DB
 10
37162.0
 20
11886.2
 30
0.000000
  70
    32
  0
VERTEX
  8
0
  5
22DC
 10
37184.7
 20
11885.5
 30
0.000000
  70
    32
  0
VERTEX
  8
0
  5
22DD
 10
37207.5
 20
11883.3
 30
0.000000
  70
    32
  0
VERTEX
  8
0
  5
22DE
 10
37230.2
 20
11879.6
 30
0.000000
  70
    32
  0
VERTEX
  8
0
  5
22DF
 10
37253.0
 20
11874.4
 30
0.000000
  70
    32
  0
VERTEX
  8
0
  5
22E0
 10
37275.7
 20
11867.9
 30
0.000000
  70
    32
  0
VERTEX
  8
0
  5
22E1
 10
37298.5
 20
11859.9
 30
0.000000
  70
    32
  0
VERTEX
  8
0
  5
22E2
 10
37321.2
 20
11850.7
 30
0.000000
  70
    32
  0
VERTEX
  8
0
  5
22E3
 10
37344.0
 20
11840.1
 30
0.000000
  70
    32
  0
VERTEX
  8
0
  5
22E4
 10
37366.7
 20
11828.3
 30
0.000000
  70
    32
  0
VERTEX
  8
0
  5
22E5
 10
37389.5
 20
11815.2
 30
0.000000
  70
    32
  0
VERTEX
  8
0
  5
22E6
 10
37412.2
 20
11800.9
 30
0.000000
  70
    32
  0
VERTEX
  8
0
  5
22E7
 10
37435.0
 20
11785.5
 30
0.000000
  70
    32
  0
VERTEX
  8
0
  5
22E8
 10
37457.7
 20
11768.9
 30
0.000000
  70
    32
  0
VERTEX
  8
0
  5
22E9
 10
37480.5
 20
11751.2
 30
0.000000
  70
    32
  0
VERTEX
  8
0
  5
22EA
 10
37503.2
 20
11732.5
 30
0.000000
  70
    32
  0
VERTEX
  8
0
  5
22EB
 10
37525.9
 20
11712.8
 30
0.000000
  70
    32
  0
VERTEX
  8
0
  5
22EC
 10
37548.7
 20
11692.1
 30
0.000000
  70
    32
  0
VERTEX
  8
0
  5
22ED
 10
37571.4
 20
11670.4
 30
0.000000
  70
    32
  0
VERTEX
  8
0
  5
22EE
 10
37594.2
 20
11647.8
 30
0.000000
  70
    32
  0
VERTEX
  8
0
  5
22EF
 10
37616.9
 20
11624.3
 30
0.000000
  70
    32
  0
VERTEX
  8
0
  5
22F0
 10
37639.7
 20
11600.0
 30
0.000000
  70
    32
  0
VERTEX
  8
0
  5
22F1
 10
37662.4
 20
11574.9
 30
0.000000
  70
    32
  0
VERTEX
  8
0
  5
22F2
 10
37685.1
 20
11549.0
 30
0.000000
  70
    32
  0
VERTEX
  8
0
  5
22F3
 10
37707.9
 20
11522.3
 30
0.000000
  70
    32
  0
VERTEX
  8
0
  5
22F4
 10
37730.6
 20
11494.9
 30
0.000000
  70
    32
  0
VERTEX
  8
0
  5
22F5
 10
37753.3
 20
11466.9
 30
0.000000
  70
    32
  0
VERTEX
  8
0
  5
22F6
 10
37776.0
 20
11438.3
 30
0.000000
  70
    32
  0
VERTEX
  8
0
  5
22F7
 10
37798.8
 20
11409.0
 30
0.000000
  70
    32
  0
VERTEX
  8
0
  5
22F8
 10
37821.5
 20
11379.2
 30
0.000000
  70
    32
  0
VERTEX
  8
0
  5
22F9
 10
37844.2
 20
11348.8
 30
0.000000
  70
    32
  0
VERTEX
  8
0
  5
22FA
 10
37866.9
 20
11318.0
 30
0.000000
  70
    32
  0
VERTEX
  8
0
  5
22FB
 10
37889.6
 20
11286.7
 30
0.000000
  70
    32
  0
VERTEX
  8
0
  5
22FC
 10
37912.3
 20
11254.9
 30
0.000000
  70
    32
  0
VERTEX
  8
0
  5
22FD
 10
37935.0
 20
11222.8
 30
0.000000
  70
    32
  0
VERTEX
  8
0
  5
22FE
 10
37957.7
 20
11190.3
 30
0.000000
  70
    32
  0
VERTEX
  8
0
  5
22FF
 10
37980.4
 20
11157.5
 30
0.000000
  70
    32
  0
VERTEX
  8
0
  5
2300
 10
38003.1
 20
11124.4
 30
0.000000
  70
    32
  0
VERTEX
  8
0
  5
2301
 10
38025.8
 20
11091.1
 30
0.000000
  70
    32
  0
VERTEX
  8
0
  5
2302
 10
38048.5
 20
11057.6
 30
0.000000
  70
    32
  0
VERTEX
  8
0
  5
2303
 10
38071.2
 20
11023.9
 30
0.000000
  70
    32
  0
VERTEX
  8
0
  5
2304
 10
38093.8
 20
10990.0
 30
0.000000
  70
    32
  0
VERTEX
  8
0
  5
2305
 10
38116.5
 20
10956.0
 30
0.000000
  70
    32
  0
VERTEX
  8
0
  5
2306
 10
38139.1
 20
10922.0
 30
0.000000
  70
    32
  0
VERTEX
  8
0
  5
2307
 10
38161.8
 20
10887.9
 30
0.000000
  70
    32
  0
VERTEX
  8
0
  5
2308
 10
38184.5
 20
10853.9
 30
0.000000
  70
    32
  0
VERTEX
  8
0
  5
2309
 10
38207.1
 20
10819.8
 30
0.000000
  70
    32
  0
VERTEX
  8
0
  5
230A
 10
38229.7
 20
10785.8
 30
0.000000
  70
    32
  0
VERTEX
  8
0
  5
230B
 10
38252.4
 20
10752.0
 30
0.000000
  70
    32
  0
VERTEX
  8
0
  5
230C
 10
38275.0
 20
10718.2
 30
0.000000
  70
    32
  0
VERTEX
  8
0
  5
230D
 10
38297.6
 20
10684.7
 30
0.000000
  70
    32
  0
VERTEX
  8
0
  5
230E
 10
38320.3
 20
10651.3
 30
0.000000
  70
    32
  0
VERTEX
  8
0
  5
230F
 10
38342.9
 20
10618.2
 30
0.000000
  70
    32
  0
VERTEX
  8
0
  5
2310
 10
38365.5
 20
10585.4
 30
0.000000
  70
    32
  0
VERTEX
  8
0
  5
2311
 10
38388.1
 20
10552.9
 30
0.000000
  70
    32
  0
VERTEX
  8
0
  5
2312
 10
38410.8
 20
10520.8
 30
0.000000
  70
    32
  0
VERTEX
  8
0
  5
2313
 10
38433.4
 20
10489.0
 30
0.000000
  70
    32
  0
VERTEX
  8
0
  5
2314
 10
38456.0
 20
10457.6
 30
0.000000
  70
    32
  0
VERTEX
  8
0
  5
2315
 10
38478.7
 20
10426.7
 30
0.000000
  70
    32
  0
VERTEX
  8
0
  5
2316
 10
38501.3
 20
10396.3
 30
0.000000
  70
    32
  0
VERTEX
  8
0
  5
2317
 10
38523.9
 20
10366.5
 30
0.000000
  70
    32
  0
VERTEX
  8
0
  5
2318
 10
38546.6
 20
10337.1
 30
0.000000
  70
    32
  0
VERTEX
  8
0
  5
2319
 10
38569.2
 20
10308.4
 30
0.000000
  70
    32
  0
VERTEX
  8
0
  5
231A
 10
38591.9
 20
10280.3
 30
0.000000
  70
    32
  0
VERTEX
  8
0
  5
231B
 10
38614.5
 20
10252.9
 30
0.000000
  70
    32
  0
VERTEX
  8
0
  5
231C
 10
38637.2
 20
10226.2
 30
0.000000
  70
    32
  0
VERTEX
  8
0
  5
231D
 10
38659.8
 20
10200.2
 30
0.000000
  70
    32
  0
VERTEX
  8
0
  5
231E
 10
38682.5
 20
10175.0
 30
0.000000
  70
    32
  0
VERTEX
  8
0
  5
231F
 10
38705.2
 20
10150.6
 30
0.000000
  70
    32
  0
VERTEX
  8
0
  5
2320
 10
38727.9
 20
10127.0
 30
0.000000
  70
    32
  0
VERTEX
  8
0
  5
2321
 10
38750.6
 20
10104.3
 30
0.000000
  70
    32
  0
VERTEX
  8
0
  5
2322
 10
38773.3
 20
10082.6
 30
0.000000
  70
    32
  0
VERTEX
  8
0
  5
2323
 10
38796.1
 20
10061.7
 30
0.000000
  70
    32
  0
VERTEX
  8
0
  5
2324
 10
38818.8
 20
10041.9
 30
0.000000
  70
    32
  0
VERTEX
  8
0
  5
2325
 10
38841.5
 20
10023.1
 30
0.000000
  70
    32
  0
VERTEX
  8
0
  5
2326
 10
38864.3
 20
10005.3
 30
0.000000
  70
    32
  0
VERTEX
  8
0
  5
2327
 10
38887.1
 20
9988.63
 30
0.000000
  70
    32
  0
VERTEX
  8
0
  5
2328
 10
38909.9
 20
9973.08
 30
0.000000
  70
    32
  0
VERTEX
  8
0
  5
2329
 10
38932.7
 20
9958.68
 30
0.000000
  70
    32
  0
VERTEX
  8
0
  5
232A
 10
38955.5
 20
9945.48
 30
0.000000
  70
    32
  0
VERTEX
  8
0
  5
232B
 10
38978.3
 20
9933.50
 30
0.000000
  70
    32
  0
VERTEX
  8
0
  5
232C
 10
39001.2
 20
9922.80
 30
0.000000
  70
    32
  0
VERTEX
  8
0
  5
232D
 10
39024.0
 20
9913.39
 30
0.000000
  70
    32
  0
VERTEX
  8
0
  5
232E
 10
39046.9
 20
9905.31
 30
0.000000
  70
    32
  0
VERTEX
  8
0
  5
232F
 10
39069.8
 20
9898.61
 30
0.000000
  70
    32
  0
VERTEX
  8
0
  5
2330
 10
39092.7
 20
9893.31
 30
0.000000
  70
    32
  0
VERTEX
  8
0
  5
2331
 10
39115.7
 20
9889.45
 30
0.000000
  70
    32
  0
VERTEX
  8
0
  5
2332
 10
39138.6
 20
9887.07
 30
0.000000
  70
    32
  0
VERTEX
  8
0
  5
2333
 10
39161.6
 20
9886.19
 30
0.000000
  70
    32
  0
VERTEX
  8
0
  5
2334
 10
39184.6
 20
9886.86
 30
0.000000
  70
    32
  0
VERTEX
  8
0
  5
2335
 10
39207.6
 20
9889.04
 30
0.000000
  70
    32
  0
VERTEX
  8
0
  5
2336
 10
39230.6
 20
9892.69
 30
0.000000
  70
    32
  0
VERTEX
  8
0
  5
2337
 10
39253.7
 20
9897.79
 30
0.000000
  70
    32
  0
VERTEX
  8
0
  5
2338
 10
39276.8
 20
9904.29
 30
0.000000
  70
    32
  0
VERTEX
  8
0
  5
2339
 10
39299.9
 20
9912.16
 30
0.000000
  70
    32
  0
VERTEX
  8
0
  5
233A
 10
39323.0
 20
9921.37
 30
0.000000
  70
    32
  0
VERTEX
  8
0
  5
233B
 10
39346.1
 20
9931.88
 30
0.000000
  70
    32
  0
VERTEX
  8
0
  5
233C
 10
39369.3
 20
9943.64
 30
0.000000
  70
    32
  0
VERTEX
  8
0
  5
233D
 10
39392.4
 20
9956.63
 30
0.000000
  70
    32
  0
VERTEX
  8
0
  5
233E
 10
39415.6
 20
9970.82
 30
0.000000
  70
    32
  0
VERTEX
  8
0
  5
233F
 10
39438.8
 20
9986.15
 30
0.000000
  70
    32
  0
VERTEX
  8
0
  5
2340
 10
39462.0
 20
10002.6
 30
0.000000
  70
    32
  0
VERTEX
  8
0
  5
2341
 10
39485.2
 20
10020.1
 30
0.000000
  70
    32
  0
VERTEX
  8
0
  5
2342
 10
39508.5
 20
10038.7
 30
0.000000
  70
    32
  0
VERTEX
  8
0
  5
2343
 10
39531.7
 20
10058.3
 30
0.000000
  70
    32
  0
VERTEX
  8
0
  5
2344
 10
39555.0
 20
10078.9
 30
0.000000
  70
    32
  0
VERTEX
  8
0
  5
2345
 10
39578.3
 20
10100.4
 30
0.000000
  70
    32
  0
VERTEX
  8
0
  5
2346
 10
39601.6
 20
10122.8
 30
0.000000
  70
    32
  0
VERTEX
  8
0
  5
2347
 10
39624.9
 20
10146.0
 30
0.000000
  70
    32
  0
VERTEX
  8
0
  5
2348
 10
39648.2
 20
10170.1
 30
0.000000
  70
    32
  0
VERTEX
  8
0
  5
2349
 10
39671.5
 20
10195.0
 30
0.000000
  70
    32
  0
VERTEX
  8
0
  5
234A
 10
39694.9
 20
10220.7
 30
0.000000
  70
    32
  0
VERTEX
  8
0
  5
234B
 10
39718.2
 20
10247.0
 30
0.000000
  70
    32
  0
VERTEX
  8
0
  5
234C
 10
39741.6
 20
10274.1
 30
0.000000
  70
    32
  0
VERTEX
  8
0
  5
234D
 10
39764.9
 20
10301.8
 30
0.000000
  70
    32
  0
VERTEX
  8
0
  5
234E
 10
39788.3
 20
10330.1
 30
0.000000
  70
    32
  0
VERTEX
  8
0
  5
234F
 10
39811.7
 20
10359.0
 30
0.000000
  70
    32
  0
VERTEX
  8
0
  5
2350
 10
39835.1
 20
10388.4
 30
0.000000
  70
    32
  0
VERTEX
  8
0
  5
2351
 10
39858.4
 20
10418.3
 30
0.000000
  70
    32
  0
VERTEX
  8
0
  5
2352
 10
39881.8
 20
10448.8
 30
0.000000
  70
    32
  0
VERTEX
  8
0
  5
2353
 10
39905.3
 20
10479.6
 30
0.000000
  70
    32
  0
VERTEX
  8
0
  5
2354
 10
39928.7
 20
10510.8
 30
0.000000
  70
    32
  0
VERTEX
  8
0
  5
2355
 10
39952.1
 20
10542.4
 30
0.000000
  70
    32
  0
VERTEX
  8
0
  5
2356
 10
39975.5
 20
10574.3
 30
0.000000
  70
    32
  0
VERTEX
  8
0
  5
2357
 10
39998.9
 20
10606.5
 30
0.000000
  70
    32
  0
VERTEX
  8
0
  5
2358
 10
40022.3
 20
10639.0
 30
0.000000
  70
    32
  0
VERTEX
  8
0
  5
2359
 10
40045.8
 20
10671.7
 30
0.000000
  70
    32
  0
VERTEX
  8
0
  5
235A
 10
40069.2
 20
10704.5
 30
0.000000
  70
    32
  0
VERTEX
  8
0
  5
235B
 10
40092.6
 20
10737.5
 30
0.000000
  70
    32
  0
VERTEX
  8
0
  5
235C
 10
40116.1
 20
10770.6
 30
0.000000
  70
    32
  0
VERTEX
  8
0
  5
235D
 10
40139.5
 20
10803.8
 30
0.000000
  70
    32
  0
VERTEX
  8
0
  5
235E
 10
40163.0
 20
10837.0
 30
0.000000
  70
    32
  0
SEQEND
  8
0
  5
235F
  0
TEXT
  5
3FC
  8
0
 10
32162.959307891371
 20
11886.19105157217
 30
0.0
 40
500.0
  1
スプライン曲線
  7
KANJI
  0
LINE
  5
40C
  8
0
 10
32162.959307891371
 20
8789.5158270274333
 30
0.0
 11
40162.959307891368
 21
8789.5158270274333
 31
0.0
  0
LINE
  5
40D
  8
0
 10
32162.959307891371
 20
6789.5158270274333
 30
0.0
 11
40118.791045835002
 21
6789.515827027426
 31
0.0
  0
POLYLINE
  5
40E
  8
0
 66
     1
 10
0.0
 20
0.0
 30
0.0
  0
VERTEX
  5
2125
  8
0
 10
32162.959307891371
 20
6789.5158270274351
 30
0.0
  0
VERTEX
  5
2126
  8
0
 10
34144.217405715019
 20
8789.5158270274333
 30
0.0
  0
VERTEX
  5
2127
  8
0
 10
36162.959307891368
 20
6789.5158270274351
 30
0.0
  0
VERTEX
  5
2128
  8
0
 10
38110.783546968618
 20
8789.5158270274333
 30
0.0
  0
VERTEX
  5
2129
  8
0
 10
40118.791045835009
 20
6789.5158270274324
 30
0.0
  0
SEQEND
  5
212A
  8
0
  0
TEXT
  5
40F
  8
0
 10
32162.959307891371
 20
8789.5158270274333
 30
0.0
 40
500.0
  1
ポリライン
  7
KANJI
  0
POLYLINE
  5
411
  8
0
 66
     1
 10
0.0
 20
0.0
 30
0.0
 70
     1
1001
ACAD
1000
ASC_BOUNDS
1002
{
1070
    19
1005
434
1002
}
  0
VERTEX
  5
212B
  8
0
 10
37649.984925865952
 20
15879.054869113421
 30
0.0
  0
VERTEX
  5
212C
  8
0
 10
40498.45357200499
 20
15879.054869113421
 30
0.0
  0
VERTEX
  5
212D
  8
0
 10
40498.45357200499
 20
13879.054869113421
 30
0.0
  0
VERTEX
  5
212E
  8
0
 10
37649.984925865952
 20
13879.054869113421
 30
0.0
  0
SEQEND
  5
212F
  8
0
  0
INSERT
  5
434
  8
0
  6
CONTINUOUS
  2
*X61
 10
0.0
 20
0.0
 30
0.0
1001
ACAD
1000
HATCH
1002
{
1070
    19
1000
ANSI31
1040
100.0
1040
0.0
1000
ASC_BOUNDS
1070
     1
1070
     1
1070
     1
1005
411
1000
ASC_SEEDPOINT
1011
39291.359956737419
1021
0.0
1031
0.0
1021
15049.923234904731
1031
0.0
1000
R14_HATCH_DATA
1000
434
1011
1.0
1021
0.0
1031
0.0
1021
0.0
1031
0.0
1011
0.0
1021
0.0
1031
0.0
1021
1.0
1031
0.0
1011
0.0
1021
0.0
1031
0.0
1021
0.0
1031
1.0
1040
0.0
1010
0.0
1020
0.0
1030
1.0
1000
ANSI31
1070
     0
1070
     1
1071
        1
1071
        7
1070
     0
1070
     1
1071
        4
1040
37649.984925865952
1040
15879.054869113421
1040
37649.984925865952
1040
13879.054869113421
1040
40498.45357200499
1040
13879.054869113421
1040
40498.453572004983
1040
15879.054869113421
1071
        1
1005
411
1070
     0
1070
     1
1040
0.0
1040
100.0
1070
     0
1070
     1
1040
0.7853981633974483
1040
21081.924720094939
1040
7900.6336176619898
1040
-224.50640302672869
1040
224.5064030267288
1070
     0
1040
12.72318334023255
1071
        1
1040
39291.359956737419
1040
15049.923234904731
1040
0.0
1002
}
  0
TEXT
  5
435
  8
0
 10
37649.984925865952
 20
16479.054869113421
 30
0.0
 40
500.0
  1
ハッチング
  7
KANJI
  0
TEXT
  5
436
  8
0
 10
37649.984925865952
 20
15879.054869113421
 30
0.0
 40
500.0
  1
ANSI31
  7
KANJI
  0
POINT
  5
43E
  8
0
 10
36750.93264721553
 20
18178.721898943571
 30
0.0
  0
POINT
  5
43F
  8
0
 10
37495.843494396839
 20
18178.721898943571
 30
0.0
  0
POINT
  5
440
  8
0
 10
38240.754341578147
 20
18178.721898943571
 30
0.0
  0
POINT
  5
441
  8
0
 10
38985.665188759449
 20
18178.721898943571
 30
0.0
  0
POINT
  5
442
  8
0
 10
39730.57603594075
 20
18178.721898943571
 30
0.0
  0
TEXT
  5
443
  8
0
 10
36750.93264721553
 20
18486.489105717661
 30
0.0
 40
500.0
  1
点(絶対単位300)
  7
KANJI
  0
POINT
  5
444
  8
0
 10
40475.486883122067
 20
18178.721898943571
 30
0.0
  0
POINT
  5
445
  8
0
 10
41220.397730303368
 20
18178.721898943571
 30
0.0
  0
TEXT
  5
564
  8
1
 10
834.83167002763105
 20
22670.880674968659
 30
0.0
 40
500.0
  1
ＭＳゴシック右上
  7
KANJI2
 72
     2
 11
6032.8012131748383
 21
23170.88067496867
 31
0.0
 73
     3
  0
TEXT
  5
565
  8
1
 10
834.83167002763355
 20
21670.880674968659
 30
0.0
 40
500.0
  1
ＭＳゴシック左中央
  7
KANJI2
 11
834.83167002763355
 21
21920.880674968659
 31
0.0
 73
     2
  0
LINE
  5
566
  8
1
 10
834.83167002763355
 20
21670.880674968659
 30
0.0
 11
6682.5412994692533
 21
21670.88067496867
 31
0.0
  0
LINE
  5
567
  8
1
 10
834.83167002763184
 20
22170.880674968659
 30
0.0
 11
6682.5412994692506
 21
22170.88067496867
 31
0.0
  0
TEXT
  5
568
  8
1
 10
834.83167002763514
 20
20670.880674968659
 30
0.0
 40
500.0
  1
ＭＳゴシック中央
  7
KANJI2
 72
     1
 11
3433.8164416012391
 21
20920.880674968659
 31
0.0
 73
     2
  0
LINE
  5
569
  8
1
 10
834.83167002763537
 20
20670.880674968659
 30
0.0
 11
6032.7971421088514
 21
20670.88067496867
 31
0.0
  0
LINE
  5
56A
  8
1
 10
834.83167002763537
 20
21170.880674968659
 30
0.0
 11
6032.7971421088469
 21
21170.88067496867
 31
0.0
  0
TEXT
  5
56B
  8
1
 10
834.83167002763719
 20
19670.88067496867
 30
0.0
 40
500.0
  1
ＭＳゴシック右中央
  7
KANJI2
 72
     2
 11
6682.5474060682473
 21
19920.88067496867
 31
0.0
 73
     2
  0
LINE
  5
56C
  8
1
 10
834.83167002763719
 20
19670.880674968659
 30
0.0
 11
6682.541299469256
 21
19670.88067496867
 31
0.0
  0
LINE
  5
56D
  8
1
 10
834.83167002763719
 20
20170.880674968659
 30
0.0
 11
6682.541299469256
 21
20170.88067496867
 31
0.0
  0
TEXT
  5
56E
  8
1
 10
834.83167002763923
 20
18670.880674968659
 30
0.0
 40
500.0
  1
ＭＳゴシック左下
  7
KANJI2
 11
834.83167002763923
 21
18579.510116593028
 31
0.0
 73
     1
  0
LINE
  5
56F
  8
1
 10
834.83167002763923
 20
19170.880674968659
 30
0.0
 11
6032.7971421088514
 21
19170.88067496867
 31
0.0
  0
LINE
  5
570
  8
1
 10
834.83167002763923
 20
18670.880674968659
 30
0.0
 11
6032.7971421088541
 21
18670.88067496867
 31
0.0
  0
TEXT
  5
571
  8
1
 10
834.83167002764264
 20
17670.880674968659
 30
0.0
 40
500.0
  1
ＭＳゴシック下中心
  7
KANJI2
 72
     1
 11
3758.6895380479468
 21
17579.510116593028
 31
0.0
 73
     1
  0
LINE
  5
572
  8
1
 10
834.83167002764094
 20
18170.880674968659
 30
0.0
 11
6682.5412994692597
 21
18170.88067496867
 31
0.0
  0
LINE
  5
573
  8
1
 10
834.83167002764264
 20
17670.880674968659
 30
0.0
 11
6682.5412994692597
 21
17670.88067496867
 31
0.0
  0
TEXT
  5
574
  8
1
 10
834.83167002764355
 20
16670.880674968659
 30
0.0
 40
500.0
  1
ＭＳゴシック右下
  7
KANJI2
 72
     2
 11
6032.801213174851
 21
16579.510116593028
 31
0.0
 73
     1
  0
LINE
  5
575
  8
1
 10
834.83167002764446
 20
16670.880674968659
 30
0.0
 11
6032.7971421088587
 21
16670.88067496867
 31
0.0
  0
LINE
  5
576
  8
1
 10
834.83167002764446
 20
17170.880674968659
 30
0.0
 11
6032.7971421088541
 21
17170.88067496867
 31
0.0
  0
LINE
  5
577
  8
1
 10
834.83167002764822
 20
15140.89629083311
 30
0.0
 11
7332.2935989616581
 21
15140.89629083312
 31
0.0
  0
TEXT
  5
578
  8
1
 10
834.83167002764822
 20
15140.89629083311
 30
0.0
 40
1000.0
  1
高さを確認
  7
KANJI2
 72
     2
 11
7332.2935989616581
 21
15140.89629083311
 31
0.0
  0
LINE
  5
579
  8
1
 10
7332.2935989616581
 20
16140.89629083311
 30
0.0
 11
834.83167002764822
 21
16140.89629083311
 31
0.0
  0
INSERT
  5
57A
  8
1
  2
*U62
 10
0.0
 20
0.0
 30
0.0
  0
LINE
  5
57B
  8
1
 10
834.83167002764822
 20
14517.44463265923
 30
0.0
 11
5367.7372542063003
 21
14517.44463265923
 31
0.0
  0
LINE
  5
57C
  8
1
 10
834.83167002764822
 20
13110.50723841219
 30
0.0
 11
5367.7372542062976
 21
13110.50723841219
 31
0.0
  0
LINE
  5
57D
  8
1
 10
834.83167002764446
 20
16670.880674968659
 30
0.0
 11
834.83167002764446
 21
17170.880674968659
 31
0.0
  0
LINE
  5
57E
  8
1
 10
834.83167002764822
 20
14517.44463265923
 30
0.0
 11
834.83167002764822
 21
13110.50723841219
 31
0.0
  0
LINE
  5
57F
  8
1
 10
834.83167002764822
 20
15140.89629083311
 30
0.0
 11
834.83167002764822
 21
16140.89629083311
 31
0.0
  0
LINE
  5
580
  8
1
 10
834.83167002763719
 20
19670.880674968659
 30
0.0
 11
834.83167002763719
 21
20170.880674968659
 31
0.0
  0
LINE
  5
581
  8
1
 10
834.83167002764264
 20
17670.880674968659
 30
0.0
 11
834.83167002764094
 21
18170.880674968659
 31
0.0
  0
LINE
  5
582
  8
1
 10
834.83167002763923
 20
18670.880674968659
 30
0.0
 11
834.83167002763923
 21
19170.880674968659
 31
0.0
  0
LINE
  5
583
  8
1
 10
834.83167002763537
 20
20670.880674968659
 30
0.0
 11
834.83167002763537
 21
21170.880674968659
 31
0.0
  0
LINE
  5
584
  8
1
 10
834.83167002763355
 20
21670.880674968659
 30
0.0
 11
834.83167002763184
 21
22170.880674968659
 31
0.0
  0
LINE
  5
585
  8
1
 10
6032.7971421088587
 20
16670.88067496867
 30
0.0
 11
6032.7971421088541
 21
17170.88067496867
 31
0.0
  0
LINE
  5
586
  8
1
 10
5383.052984748454
 20
16670.88067496867
 30
0.0
 11
5383.0529847484522
 21
17170.88067496867
 31
0.0
  0
LINE
  5
587
  8
1
 10
4733.3088273880512
 20
16670.88067496867
 30
0.0
 11
4733.3088273880494
 21
17170.88067496867
 31
0.0
  0
LINE
  5
588
  8
1
 10
4083.5646700276438
 20
16670.880674968659
 30
0.0
 11
4083.5646700276438
 21
17170.880674968659
 31
0.0
  0
LINE
  5
589
  8
1
 10
3433.8180700276439
 20
16670.880674968659
 30
0.0
 11
3433.8180700276439
 21
17170.880674968659
 31
0.0
  0
LINE
  5
58A
  8
1
 10
2784.071470027644
 20
16670.880674968659
 30
0.0
 11
2784.071470027644
 21
17170.880674968659
 31
0.0
  0
LINE
  5
58B
  8
1
 10
2134.3248700276449
 20
16670.880674968659
 30
0.0
 11
2134.3248700276431
 21
17170.880674968659
 31
0.0
  0
LINE
  5
58C
  8
1
 10
1484.578270027645
 20
16670.880674968659
 30
0.0
 11
1484.5782700276429
 21
17170.880674968659
 31
0.0
  0
LINE
  5
58D
  8
1
 10
5367.7372542062976
 20
13110.50723841219
 30
0.0
 11
5367.7372542063003
 21
14517.44463265923
 31
0.0
  0
LINE
  5
58E
  8
1
 10
4733.3088273880512
 20
16670.88067496867
 30
0.0
 11
4733.3088273880512
 21
16670.88067496867
 31
0.0
  0
LINE
  5
58F
  8
1
 10
5383.052984748454
 20
16670.88067496867
 30
0.0
 11
5383.052984748454
 21
16670.88067496867
 31
0.0
  0
LINE
  5
590
  8
1
 10
6032.7971421088587
 20
16670.880674968681
 30
0.0
 11
6032.7971421088587
 21
16670.880674968681
 31
0.0
  0
LINE
  5
591
  8
1
 10
7332.2935989616581
 20
15140.89629083312
 30
0.0
 11
7332.2935989616581
 21
16140.89629083311
 31
0.0
  0
LINE
  5
592
  8
1
 10
4083.564670027637
 20
19670.880674968659
 30
0.0
 11
4083.564670027637
 21
20170.880674968659
 31
0.0
  0
LINE
  5
593
  8
1
 10
3433.8180700276371
 20
19670.880674968659
 30
0.0
 11
3433.8180700276371
 21
20170.880674968659
 31
0.0
  0
LINE
  5
594
  8
1
 10
2784.0714700276371
 20
19670.880674968659
 30
0.0
 11
2784.0714700276371
 21
20170.880674968659
 31
0.0
  0
LINE
  5
595
  8
1
 10
1484.578270027637
 20
19670.880674968659
 30
0.0
 11
1484.578270027637
 21
20170.880674968659
 31
0.0
  0
LINE
  5
596
  8
1
 10
2134.3248700276381
 20
19670.880674968659
 30
0.0
 11
2134.3248700276358
 21
20170.880674968659
 31
0.0
  0
LINE
  5
597
  8
1
 10
1484.5782700276411
 20
17670.880674968659
 30
0.0
 11
1484.5782700276411
 21
18170.880674968659
 31
0.0
  0
LINE
  5
598
  8
1
 10
2134.3248700276408
 20
17670.880674968659
 30
0.0
 11
2134.3248700276399
 21
18170.880674968659
 31
0.0
  0
LINE
  5
599
  8
1
 10
2784.0714700276399
 20
17670.880674968659
 30
0.0
 11
2784.0714700276399
 21
18170.880674968659
 31
0.0
  0
LINE
  5
59A
  8
1
 10
1484.5782700276391
 20
18670.880674968659
 30
0.0
 11
1484.5782700276391
 21
19170.880674968659
 31
0.0
  0
LINE
  5
59B
  8
1
 10
2134.3248700276399
 20
18670.880674968659
 30
0.0
 11
2134.3248700276381
 21
19170.880674968659
 31
0.0
  0
LINE
  5
59C
  8
1
 10
2784.071470027638
 20
18670.880674968659
 30
0.0
 11
2784.071470027638
 21
19170.880674968659
 31
0.0
  0
LINE
  5
59D
  8
1
 10
3433.8180700276412
 20
17670.880674968659
 30
0.0
 11
3433.8180700276412
 21
18170.880674968659
 31
0.0
  0
LINE
  5
59E
  8
1
 10
4083.5646700276411
 20
17670.880674968659
 30
0.0
 11
4083.5646700276411
 21
18170.880674968659
 31
0.0
  0
LINE
  5
59F
  8
1
 10
3433.8180700276389
 20
18670.880674968659
 30
0.0
 11
3433.8180700276389
 21
19170.880674968659
 31
0.0
  0
LINE
  5
5A0
  8
1
 10
4083.5646700276388
 20
18670.880674968659
 30
0.0
 11
4083.5646700276388
 21
19170.880674968659
 31
0.0
  0
LINE
  5
5A1
  8
1
 10
1484.578270027635
 20
20670.880674968659
 30
0.0
 11
1484.5782700276341
 21
21170.880674968659
 31
0.0
  0
LINE
  5
5A2
  8
1
 10
2134.3248700276358
 20
20670.880674968659
 30
0.0
 11
2134.324870027634
 21
21170.880674968659
 31
0.0
  0
LINE
  5
5A3
  8
1
 10
2784.0714700276349
 20
20670.880674968659
 30
0.0
 11
2784.0714700276349
 21
21170.880674968659
 31
0.0
  0
LINE
  5
5A4
  8
1
 10
1484.578270027632
 20
21670.880674968659
 30
0.0
 11
1484.578270027632
 21
22170.880674968659
 31
0.0
  0
LINE
  5
5A5
  8
1
 10
2134.3248700276322
 20
21670.880674968659
 30
0.0
 11
2134.3248700276308
 21
22170.880674968659
 31
0.0
  0
LINE
  5
5A6
  8
1
 10
2784.0714700276312
 20
21670.880674968659
 30
0.0
 11
2784.0714700276312
 21
22170.880674968659
 31
0.0
  0
LINE
  5
5A7
  8
1
 10
3433.8180700276348
 20
20670.880674968659
 30
0.0
 11
3433.8180700276348
 21
21170.880674968659
 31
0.0
  0
LINE
  5
5A8
  8
1
 10
4083.5646700276361
 20
20670.880674968659
 30
0.0
 11
4083.5646700276361
 21
21170.880674968659
 31
0.0
  0
LINE
  5
5A9
  8
1
 10
3433.8180700276321
 20
21670.880674968659
 30
0.0
 11
3433.8180700276321
 21
22170.880674968659
 31
0.0
  0
LINE
  5
5AA
  8
1
 10
4083.564670027632
 20
21670.880674968659
 30
0.0
 11
4083.564670027632
 21
22170.880674968659
 31
0.0
  0
LINE
  5
5AB
  8
1
 10
6682.541299469256
 20
19670.88067496867
 30
0.0
 11
6682.541299469256
 21
20170.88067496867
 31
0.0
  0
LINE
  5
5AC
  8
1
 10
6032.7971421088514
 20
19670.88067496867
 30
0.0
 11
6032.7971421088514
 21
20170.88067496867
 31
0.0
  0
LINE
  5
5AD
  8
1
 10
4733.3088273880439
 20
19670.88067496867
 30
0.0
 11
4733.3088273880421
 21
20170.880674968659
 31
0.0
  0
LINE
  5
5AE
  8
1
 10
5383.0529847484486
 20
19670.88067496867
 30
0.0
 11
5383.0529847484468
 21
20170.88067496867
 31
0.0
  0
LINE
  5
5AF
  8
1
 10
4733.3088273880467
 20
17670.88067496867
 30
0.0
 11
4733.3088273880467
 21
17670.88067496867
 31
0.0
  0
LINE
  5
5B0
  8
1
 10
4733.3088273880467
 20
17670.88067496867
 30
0.0
 11
4733.3088273880458
 21
18170.880674968659
 31
0.0
  0
LINE
  5
5B1
  8
1
 10
5383.0529847484522
 20
17670.88067496867
 30
0.0
 11
5383.0529847484522
 21
17670.88067496867
 31
0.0
  0
LINE
  5
5B2
  8
1
 10
5383.0529847484522
 20
17670.88067496867
 30
0.0
 11
5383.0529847484504
 21
18170.88067496867
 31
0.0
  0
LINE
  5
5B3
  8
1
 10
6032.7971421088541
 20
17670.880674968681
 30
0.0
 11
6032.7971421088541
 21
17670.880674968681
 31
0.0
  0
LINE
  5
5B4
  8
1
 10
6032.7971421088541
 20
17670.88067496867
 30
0.0
 11
6032.7971421088541
 21
18170.88067496867
 31
0.0
  0
LINE
  5
5B5
  8
1
 10
5383.0529847484504
 20
18670.88067496867
 30
0.0
 11
5383.0529847484486
 21
19170.88067496867
 31
0.0
  0
LINE
  5
5B6
  8
1
 10
4733.3088273880458
 20
18670.88067496867
 30
0.0
 11
4733.3088273880439
 21
19170.88067496867
 31
0.0
  0
LINE
  5
5B7
  8
1
 10
4733.3088273880458
 20
18670.88067496867
 30
0.0
 11
4733.3088273880458
 21
18670.88067496867
 31
0.0
  0
LINE
  5
5B8
  8
1
 10
5383.0529847484504
 20
18670.88067496867
 30
0.0
 11
5383.0529847484504
 21
18670.88067496867
 31
0.0
  0
LINE
  5
5B9
  8
1
 10
4733.3088273880439
 20
19670.88067496867
 30
0.0
 11
4733.3088273880439
 21
19670.88067496867
 31
0.0
  0
LINE
  5
5BA
  8
1
 10
5383.0529847484486
 20
19670.88067496867
 30
0.0
 11
5383.0529847484486
 21
19670.88067496867
 31
0.0
  0
LINE
  5
5BB
  8
1
 10
6032.7971421088541
 20
18670.88067496867
 30
0.0
 11
6032.7971421088514
 21
19170.88067496867
 31
0.0
  0
LINE
  5
5BC
  8
1
 10
6032.7971421088541
 20
18670.880674968681
 30
0.0
 11
6032.7971421088541
 21
18670.880674968681
 31
0.0
  0
LINE
  5
5BD
  8
1
 10
6032.7971421088514
 20
19670.880674968681
 30
0.0
 11
6032.7971421088514
 21
19670.880674968681
 31
0.0
  0
LINE
  5
5BE
  8
1
 10
6682.5412994692597
 20
17670.880674968681
 30
0.0
 11
6682.5412994692597
 21
17670.880674968681
 31
0.0
  0
LINE
  5
5BF
  8
1
 10
6682.5412994692597
 20
17670.88067496867
 30
0.0
 11
6682.5412994692597
 21
18170.88067496867
 31
0.0
  0
LINE
  5
5C0
  8
1
 10
6682.541299469256
 20
19670.880674968681
 30
0.0
 11
6682.541299469256
 21
19670.880674968681
 31
0.0
  0
LINE
  5
5C1
  8
1
 10
4733.3088273880421
 20
20670.88067496867
 30
0.0
 11
4733.3088273880421
 21
20670.88067496867
 31
0.0
  0
LINE
  5
5C2
  8
1
 10
4733.3088273880421
 20
20670.88067496867
 30
0.0
 11
4733.3088273880403
 21
21170.88067496867
 31
0.0
  0
LINE
  5
5C3
  8
1
 10
5383.0529847484449
 20
20670.88067496867
 30
0.0
 11
5383.0529847484449
 21
20670.88067496867
 31
0.0
  0
LINE
  5
5C4
  8
1
 10
5383.0529847484449
 20
20670.88067496867
 30
0.0
 11
5383.0529847484431
 21
21170.88067496867
 31
0.0
  0
LINE
  5
5C5
  8
1
 10
6032.7971421088514
 20
20670.880674968681
 30
0.0
 11
6032.7971421088514
 21
20670.880674968681
 31
0.0
  0
LINE
  5
5C6
  8
1
 10
6032.7971421088514
 20
20670.88067496867
 30
0.0
 11
6032.7971421088469
 21
21170.88067496867
 31
0.0
  0
LINE
  5
5C7
  8
1
 10
4733.3088273880394
 20
21670.88067496867
 30
0.0
 11
4733.3088273880367
 21
22170.88067496867
 31
0.0
  0
LINE
  5
5C8
  8
1
 10
5383.0529847484431
 20
21670.88067496867
 30
0.0
 11
5383.0529847484422
 21
22170.88067496867
 31
0.0
  0
LINE
  5
5C9
  8
1
 10
4733.3088273880394
 20
21670.88067496867
 30
0.0
 11
4733.3088273880394
 21
21670.88067496867
 31
0.0
  0
LINE
  5
5CA
  8
1
 10
5383.0529847484431
 20
21670.88067496867
 30
0.0
 11
5383.0529847484431
 21
21670.88067496867
 31
0.0
  0
LINE
  5
5CB
  8
1
 10
6032.7971421088469
 20
21670.88067496867
 30
0.0
 11
6032.7971421088459
 21
22170.88067496867
 31
0.0
  0
LINE
  5
5CC
  8
1
 10
6032.7971421088469
 20
21670.880674968681
 30
0.0
 11
6032.7971421088469
 21
21670.880674968681
 31
0.0
  0
LINE
  5
5CD
  8
1
 10
6682.5412994692533
 20
21670.88067496867
 30
0.0
 11
6682.5412994692506
 21
22170.88067496867
 31
0.0
  0
LINE
  5
5CE
  8
1
 10
6682.5412994692533
 20
21670.880674968681
 30
0.0
 11
6682.5412994692533
 21
21670.880674968681
 31
0.0
  0
LINE
  5
5CF
  8
1
 10
834.83167002762264
 20
28670.880674968659
 30
0.0
 11
4733.3088273880294
 21
28670.880674968659
 31
0.0
  0
TEXT
  5
5D0
  8
1
 10
834.83167002762264
 20
28670.880674968659
 30
0.0
 40
500.0
  1
ＭＳゴシック
  7
KANJI2
  0
LINE
  5
5D1
  8
1
 10
834.83167002762264
 20
29170.880674968659
 30
0.0
 11
4733.3088273880276
 21
29170.880674968659
 31
0.0
  0
LINE
  5
5D2
  8
1
 10
834.83167002762264
 20
26670.880674968659
 30
0.0
 11
6682.5412994692406
 21
26670.88067496867
 31
0.0
  0
LINE
  5
5D3
  8
1
 10
834.83167002762264
 20
27170.880674968659
 30
0.0
 11
6682.5412994692424
 21
27170.88067496867
 31
0.0
  0
TEXT
  5
5D4
  8
1
 10
834.83167002762264
 20
26670.88067496867
 30
0.0
 40
500.0
  1
ＭＳゴシック右寄せ
  7
KANJI2
 72
     2
 11
6682.5474060682318
 21
26670.88067496867
 31
0.0
  0
LINE
  5
5D5
  8
1
 10
834.83167002762264
 20
25670.880674968659
 30
0.0
 11
6032.7971421088378
 21
25670.88067496867
 31
0.0
  0
LINE
  5
5D6
  8
1
 10
834.83167002762264
 20
26170.880674968659
 30
0.0
 11
6032.7971421088369
 21
26170.88067496867
 31
0.0
  0
TEXT
  5
5D7
  8
1
 10
834.83167002762411
 20
25672.149710501661
 30
0.0
 40
500.0
  1
ＭＳゴシック中央
  7
KANJI2
 72
     4
 11
3433.8164416012269
 21
25905.652248572718
 31
0.0
  0
TEXT
  5
5D8
  8
1
 10
834.83167002762639
 20
24670.880674968659
 30
0.0
 40
500.0
  1
ＭＳゴシック左上
  7
KANJI2
 11
834.83167002762639
 21
25170.880674968659
 31
0.0
 73
     3
  0
LINE
  5
5D9
  8
1
 10
834.83167002762639
 20
24670.880674968659
 30
0.0
 11
6032.7971421088396
 21
24670.88067496867
 31
0.0
  0
LINE
  5
5DA
  8
1
 10
834.83167002762457
 20
25170.880674968659
 30
0.0
 11
6032.7971421088378
 21
25170.880674968659
 31
0.0
  0
TEXT
  5
5DB
  8
1
 10
834.83167002762264
 20
27670.880674968681
 30
0.0
 40
500.0
  1
ＭＳゴシックフィット
 41
0.9
  7
KANJI2
 72
     5
 11
6682.5474060682318
 21
27670.880674968681
 31
0.0
  0
LINE
  5
5DC
  8
1
 10
834.83167002762264
 20
28170.880674968659
 30
0.0
 11
6682.5412994692424
 21
28170.88067496867
 31
0.0
  0
LINE
  5
5DD
  8
1
 10
834.83167002762264
 20
27670.880674968659
 30
0.0
 11
6682.5412994692406
 21
27670.88067496867
 31
0.0
  0
LINE
  5
5DE
  8
1
 10
834.83167002762809
 20
24170.880674968659
 30
0.0
 11
6682.5412994692424
 21
24170.88067496867
 31
0.0
  0
LINE
  5
5DF
  8
1
 10
834.83167002762809
 20
23670.880674968659
 30
0.0
 11
6682.541299469247
 21
23670.88067496867
 31
0.0
  0
LINE
  5
5E0
  8
1
 10
834.83167002762991
 20
23170.880674968659
 30
0.0
 11
6032.7971421088441
 21
23170.88067496867
 31
0.0
  0
LINE
  5
5E1
  8
1
 10
834.83167002762991
 20
22670.880674968659
 30
0.0
 11
6032.7971421088459
 21
22670.88067496867
 31
0.0
  0
TEXT
  5
5E2
  8
1
 10
834.83167002762809
 20
23670.880674968659
 30
0.0
 40
500.0
  1
ＭＳゴシック上中心
  7
KANJI2
 72
     1
 11
3758.6895380479318
 21
24170.880674968659
 31
0.0
 73
     3
  0
LINE
  5
5E3
  8
1
 10
834.83167002762809
 20
23670.880674968659
 30
0.0
 11
834.83167002762809
 21
24170.880674968659
 31
0.0
  0
LINE
  5
5E4
  8
1
 10
834.83167002762991
 20
22670.880674968659
 30
0.0
 11
834.83167002762991
 21
23170.880674968659
 31
0.0
  0
LINE
  5
5E5
  8
1
 10
834.83167002762639
 20
24670.880674968659
 30
0.0
 11
834.83167002762457
 21
25170.880674968659
 31
0.0
  0
LINE
  5
5E6
  8
1
 10
834.83167002762264
 20
26670.880674968659
 30
0.0
 11
834.83167002762264
 21
27170.880674968659
 31
0.0
  0
LINE
  5
5E7
  8
1
 10
834.83167002762264
 20
25670.880674968659
 30
0.0
 11
834.83167002762264
 21
26170.880674968659
 31
0.0
  0
LINE
  5
5E8
  8
1
 10
834.83167002762264
 20
27670.880674968659
 30
0.0
 11
834.83167002762264
 21
28170.880674968659
 31
0.0
  0
LINE
  5
5E9
  8
1
 10
834.83167002762264
 20
28670.880674968659
 30
0.0
 11
834.83167002762264
 21
29170.880674968659
 31
0.0
  0
LINE
  5
5EA
  8
1
 10
2784.0714700276271
 20
23670.880674968659
 30
0.0
 11
2784.0714700276271
 21
24170.880674968659
 31
0.0
  0
LINE
  5
5EB
  8
1
 10
2134.324870027629
 20
23670.880674968659
 30
0.0
 11
2134.3248700276272
 21
24170.880674968659
 31
0.0
  0
LINE
  5
5EC
  8
1
 10
1484.5782700276279
 20
23670.880674968659
 30
0.0
 11
1484.5782700276279
 21
24170.880674968659
 31
0.0
  0
LINE
  5
5ED
  8
1
 10
1484.57827002763
 20
22670.880674968659
 30
0.0
 11
1484.57827002763
 21
23170.880674968659
 31
0.0
  0
LINE
  5
5EE
  8
1
 10
2134.3248700276308
 20
22670.880674968659
 30
0.0
 11
2134.324870027629
 21
23170.880674968659
 31
0.0
  0
LINE
  5
5EF
  8
1
 10
2784.0714700276289
 20
22670.880674968659
 30
0.0
 11
2784.0714700276289
 21
23170.880674968659
 31
0.0
  0
LINE
  5
5F0
  8
1
 10
1484.578270027625
 20
24670.880674968659
 30
0.0
 11
1484.578270027625
 21
25170.880674968659
 31
0.0
  0
LINE
  5
5F1
  8
1
 10
2134.3248700276249
 20
24670.880674968659
 30
0.0
 11
2134.3248700276231
 21
25170.880674968659
 31
0.0
  0
LINE
  5
5F2
  8
1
 10
2784.0714700276239
 20
24670.880674968659
 30
0.0
 11
2784.0714700276239
 21
25170.880674968659
 31
0.0
  0
LINE
  5
5F3
  8
1
 10
4083.5646700276279
 20
23670.880674968659
 30
0.0
 11
4083.5646700276279
 21
24170.880674968659
 31
0.0
  0
LINE
  5
5F4
  8
1
 10
3433.818070027628
 20
23670.880674968659
 30
0.0
 11
3433.818070027628
 21
24170.880674968659
 31
0.0
  0
LINE
  5
5F5
  8
1
 10
3433.8180700276289
 20
22670.880674968659
 30
0.0
 11
3433.8180700276289
 21
23170.880674968659
 31
0.0
  0
LINE
  5
5F6
  8
1
 10
4083.5646700276288
 20
22670.880674968659
 30
0.0
 11
4083.5646700276288
 21
23170.880674968659
 31
0.0
  0
LINE
  5
5F7
  8
1
 10
3433.8180700276248
 20
24670.880674968659
 30
0.0
 11
3433.8180700276248
 21
25170.880674968659
 31
0.0
  0
LINE
  5
5F8
  8
1
 10
4083.5646700276252
 20
24670.880674968659
 30
0.0
 11
4083.5646700276252
 21
25170.880674968659
 31
0.0
  0
LINE
  5
5F9
  8
1
 10
2784.0714700276221
 20
26670.880674968659
 30
0.0
 11
2784.0714700276221
 21
27170.880674968659
 31
0.0
  0
LINE
  5
5FA
  8
1
 10
1484.5782700276229
 20
26670.880674968659
 30
0.0
 11
1484.5782700276229
 21
27170.880674968659
 31
0.0
  0
LINE
  5
5FB
  8
1
 10
2134.3248700276231
 20
26670.880674968659
 30
0.0
 11
2134.3248700276208
 21
27170.880674968659
 31
0.0
  0
LINE
  5
5FC
  8
1
 10
1484.5782700276229
 20
25670.880674968659
 30
0.0
 11
1484.5782700276229
 21
26170.880674968659
 31
0.0
  0
LINE
  5
5FD
  8
1
 10
2134.3248700276231
 20
25670.880674968659
 30
0.0
 11
2134.3248700276208
 21
26170.880674968659
 31
0.0
  0
LINE
  5
5FE
  8
1
 10
2784.0714700276221
 20
25670.880674968659
 30
0.0
 11
2784.0714700276221
 21
26170.880674968659
 31
0.0
  0
LINE
  5
5FF
  8
1
 10
4083.564670027622
 20
26670.880674968659
 30
0.0
 11
4083.564670027622
 21
27170.880674968659
 31
0.0
  0
LINE
  5
600
  8
1
 10
3433.8180700276221
 20
26670.880674968659
 30
0.0
 11
3433.8180700276221
 21
27170.880674968659
 31
0.0
  0
LINE
  5
601
  8
1
 10
3433.8180700276221
 20
25670.880674968659
 30
0.0
 11
3433.8180700276221
 21
26170.880674968659
 31
0.0
  0
LINE
  5
602
  8
1
 10
4083.564670027622
 20
25670.880674968659
 30
0.0
 11
4083.564670027622
 21
26170.880674968659
 31
0.0
  0
LINE
  5
603
  8
1
 10
6032.7971421088441
 20
23670.88067496867
 30
0.0
 11
6032.7971421088396
 21
24170.88067496867
 31
0.0
  0
LINE
  5
604
  8
1
 10
5383.0529847484404
 20
23670.88067496867
 30
0.0
 11
5383.0529847484377
 21
24170.88067496867
 31
0.0
  0
LINE
  5
605
  8
1
 10
4733.3088273880348
 20
23670.88067496867
 30
0.0
 11
4733.3088273880321
 21
24170.88067496867
 31
0.0
  0
LINE
  5
606
  8
1
 10
4733.3088273880367
 20
22670.88067496867
 30
0.0
 11
4733.3088273880367
 21
22670.88067496867
 31
0.0
  0
LINE
  5
607
  8
1
 10
4733.3088273880367
 20
22670.880674968659
 30
0.0
 11
4733.3088273880348
 21
23170.88067496867
 31
0.0
  0
LINE
  5
608
  8
1
 10
5383.0529847484422
 20
22670.88067496867
 30
0.0
 11
5383.0529847484422
 21
22670.88067496867
 31
0.0
  0
LINE
  5
609
  8
1
 10
5383.0529847484422
 20
22670.88067496867
 30
0.0
 11
5383.0529847484404
 21
23170.88067496867
 31
0.0
  0
LINE
  5
60A
  8
1
 10
4733.3088273880348
 20
23670.88067496867
 30
0.0
 11
4733.3088273880348
 21
23670.88067496867
 31
0.0
  0
LINE
  5
60B
  8
1
 10
5383.0529847484404
 20
23670.88067496867
 30
0.0
 11
5383.0529847484404
 21
23670.88067496867
 31
0.0
  0
LINE
  5
60C
  8
1
 10
6032.7971421088459
 20
22670.880674968681
 30
0.0
 11
6032.7971421088459
 21
22670.880674968681
 31
0.0
  0
LINE
  5
60D
  8
1
 10
6032.7971421088459
 20
22670.88067496867
 30
0.0
 11
6032.7971421088441
 21
23170.88067496867
 31
0.0
  0
LINE
  5
60E
  8
1
 10
6032.7971421088441
 20
23670.880674968681
 30
0.0
 11
6032.7971421088441
 21
23670.880674968681
 31
0.0
  0
LINE
  5
60F
  8
1
 10
4733.3088273880312
 20
24670.880674968659
 30
0.0
 11
4733.3088273880294
 21
25170.880674968659
 31
0.0
  0
LINE
  5
610
  8
1
 10
5383.0529847484349
 20
24670.88067496867
 30
0.0
 11
5383.052984748434
 21
25170.880674968659
 31
0.0
  0
LINE
  5
611
  8
1
 10
4733.3088273880312
 20
24670.88067496867
 30
0.0
 11
4733.3088273880312
 21
24670.88067496867
 31
0.0
  0
LINE
  5
612
  8
1
 10
5383.0529847484349
 20
24670.88067496867
 30
0.0
 11
5383.0529847484349
 21
24670.88067496867
 31
0.0
  0
LINE
  5
613
  8
1
 10
6032.7971421088396
 20
24670.88067496867
 30
0.0
 11
6032.7971421088378
 21
25170.880674968659
 31
0.0
  0
LINE
  5
614
  8
1
 10
6032.7971421088396
 20
24670.880674968681
 30
0.0
 11
6032.7971421088396
 21
24670.880674968681
 31
0.0
  0
LINE
  5
615
  8
1
 10
6682.541299469247
 20
23670.88067496867
 30
0.0
 11
6682.5412994692424
 21
24170.88067496867
 31
0.0
  0
LINE
  5
616
  8
1
 10
6682.541299469247
 20
23670.880674968681
 30
0.0
 11
6682.541299469247
 21
23670.880674968681
 31
0.0
  0
LINE
  5
617
  8
1
 10
6032.7971421088378
 20
26670.88067496867
 30
0.0
 11
6032.7971421088369
 21
27170.88067496867
 31
0.0
  0
LINE
  5
618
  8
1
 10
4733.3088273880294
 20
26670.880674968659
 30
0.0
 11
4733.3088273880276
 21
27170.880674968659
 31
0.0
  0
LINE
  5
619
  8
1
 10
5383.052984748434
 20
26670.88067496867
 30
0.0
 11
5383.0529847484322
 21
27170.88067496867
 31
0.0
  0
LINE
  5
61A
  8
1
 10
4733.3088273880294
 20
25670.88067496867
 30
0.0
 11
4733.3088273880294
 21
25670.88067496867
 31
0.0
  0
LINE
  5
61B
  8
1
 10
4733.3088273880294
 20
25670.880674968659
 30
0.0
 11
4733.3088273880276
 21
26170.880674968659
 31
0.0
  0
LINE
  5
61C
  8
1
 10
5383.052984748434
 20
25670.88067496867
 30
0.0
 11
5383.052984748434
 21
25670.88067496867
 31
0.0
  0
LINE
  5
61D
  8
1
 10
5383.052984748434
 20
25670.88067496867
 30
0.0
 11
5383.0529847484322
 21
26170.88067496867
 31
0.0
  0
LINE
  5
61E
  8
1
 10
4733.3088273880294
 20
26670.88067496867
 30
0.0
 11
4733.3088273880294
 21
26670.88067496867
 31
0.0
  0
LINE
  5
61F
  8
1
 10
5383.052984748434
 20
26670.88067496867
 30
0.0
 11
5383.052984748434
 21
26670.88067496867
 31
0.0
  0
LINE
  5
620
  8
1
 10
6032.7971421088378
 20
25670.88067496867
 30
0.0
 11
6032.7971421088378
 21
25670.88067496867
 31
0.0
  0
LINE
  5
621
  8
1
 10
6032.7971421088378
 20
25670.88067496867
 30
0.0
 11
6032.7971421088369
 21
26170.88067496867
 31
0.0
  0
LINE
  5
622
  8
1
 10
6032.7971421088378
 20
26670.88067496867
 30
0.0
 11
6032.7971421088378
 21
26670.88067496867
 31
0.0
  0
LINE
  5
623
  8
1
 10
6682.5412994692406
 20
26670.88067496867
 30
0.0
 11
6682.5412994692424
 21
27170.88067496867
 31
0.0
  0
LINE
  5
624
  8
1
 10
6682.5412994692424
 20
26670.880674968681
 30
0.0
 11
6682.5412994692424
 21
26670.880674968681
 31
0.0
  0
LINE
  5
625
  8
1
 10
6682.5412994692406
 20
27670.88067496867
 30
0.0
 11
6682.5412994692424
 21
28170.88067496867
 31
0.0
  0
LINE
  5
626
  8
1
 10
6682.5412994692424
 20
27670.880674968681
 30
0.0
 11
6682.5412994692424
 21
27670.880674968681
 31
0.0
  0
LINE
  5
627
  8
1
 10
1484.5782700276229
 20
28670.880674968659
 30
0.0
 11
1484.5782700276229
 21
29170.880674968659
 31
0.0
  0
LINE
  5
628
  8
1
 10
2134.3248700276231
 20
28670.880674968659
 30
0.0
 11
2134.3248700276208
 21
29170.880674968659
 31
0.0
  0
LINE
  5
629
  8
1
 10
2784.0714700276221
 20
28670.880674968659
 30
0.0
 11
2784.0714700276221
 21
29170.880674968659
 31
0.0
  0
LINE
  5
62A
  8
1
 10
3433.8180700276221
 20
28670.880674968659
 30
0.0
 11
3433.8180700276221
 21
29170.880674968659
 31
0.0
  0
LINE
  5
62B
  8
1
 10
4083.564670027622
 20
28670.880674968659
 30
0.0
 11
4083.564670027622
 21
29170.880674968659
 31
0.0
  0
LINE
  5
62C
  8
1
 10
4733.3088273880294
 20
28670.88067496867
 30
0.0
 11
4733.3088273880294
 21
28670.88067496867
 31
0.0
  0
LINE
  5
62D
  8
1
 10
4733.3088273880294
 20
28670.880674968659
 30
0.0
 11
4733.3088273880276
 21
29170.880674968659
 31
0.0
  0
TEXT
  5
62E
  8
1
 10
8432.9106362633793
 20
22670.880674968688
 30
0.0
 40
500.0
  1
txt/bigfont右上
  7
KANJI
 72
     2
 11
14666.24396959671
 21
23170.880674968688
 31
0.0
 73
     3
  0
TEXT
  5
62F
  8
1
 10
8432.9106362633793
 20
21670.880674968688
 30
0.0
 40
500.0
  1
txt/bigfont左中央
  7
KANJI
 11
8432.9106362633793
 21
21920.880674968688
 31
0.0
 73
     2
  0
LINE
  5
630
  8
1
 10
8432.9106362633793
 20
22170.880674968688
 30
0.0
 11
15266.24396959671
 21
22170.880674968688
 31
0.0
  0
LINE
  5
631
  8
1
 10
8432.9106362633793
 20
21670.880674968688
 30
0.0
 11
15266.24396959671
 21
21670.880674968688
 31
0.0
  0
LINE
  5
632
  8
1
 10
8432.9106362633793
 20
20670.880674968699
 30
0.0
 11
14666.24396959671
 21
20670.880674968699
 31
0.0
  0
LINE
  5
633
  8
1
 10
8432.9106362633793
 20
21170.880674968699
 30
0.0
 11
14666.24396959671
 21
21170.880674968699
 31
0.0
  0
TEXT
  5
634
  8
1
 10
8432.9106362633793
 20
20670.880674968699
 30
0.0
 40
500.00000000000028
  1
txt/bigfont中央
  7
KANJI
 72
     1
 11
11549.57730293004
 21
20920.880674968699
 31
0.0
 73
     2
  0
LINE
  5
635
  8
1
 10
8432.9106362633793
 20
19670.88067496871
 30
0.0
 11
15266.24396959671
 21
19670.88067496871
 31
0.0
  0
LINE
  5
636
  8
1
 10
8432.9106362633793
 20
20170.88067496871
 30
0.0
 11
15266.24396959671
 21
20170.88067496871
 31
0.0
  0
TEXT
  5
637
  8
1
 10
8432.9106362633793
 20
19670.88067496871
 30
0.0
 40
500.0
  1
txt/bigfont右中央
  7
KANJI
 72
     2
 11
15266.24396959671
 21
19920.88067496871
 31
0.0
 73
     2
  0
TEXT
  5
638
  8
1
 10
8432.9106362633793
 20
18737.547341635389
 30
0.0
 40
500.0
  1
txt/bigfont左下
  7
KANJI
 11
8432.9106362633793
 21
18670.880674968721
 31
0.0
 73
     1
  0
LINE
  5
639
  8
1
 10
8432.9106362633793
 20
19170.880674968721
 30
0.0
 11
14666.24396959671
 21
19170.880674968721
 31
0.0
  0
LINE
  5
63A
  8
1
 10
8432.9106362633793
 20
18670.880674968721
 30
0.0
 11
14666.24396959671
 21
18670.880674968721
 31
0.0
  0
TEXT
  5
63B
  8
1
 10
8432.9106362633793
 20
17670.880674968739
 30
0.0
 40
500.0
  1
txt/bigfont下中心
  7
KANJI
 72
     1
 11
11849.57730293004
 21
17604.214008302071
 31
0.0
 73
     1
  0
LINE
  5
63C
  8
1
 10
8432.9106362633793
 20
18170.880674968728
 30
0.0
 11
15266.24396959671
 21
18170.880674968728
 31
0.0
  0
LINE
  5
63D
  8
1
 10
8432.9106362633793
 20
17670.880674968739
 30
0.0
 11
15266.24396959671
 21
17670.880674968728
 31
0.0
  0
TEXT
  5
63E
  8
1
 10
8432.9106362633847
 20
16670.88067496875
 30
0.0
 40
500.0
  1
txt/bigfont右下
  7
KANJI
 72
     2
 11
14666.24396959671
 21
16604.214008302079
 31
0.0
 73
     1
  0
LINE
  5
63F
  8
1
 10
8432.9106362633793
 20
16670.88067496875
 30
0.0
 11
14666.24396959671
 21
16670.880674968739
 31
0.0
  0
LINE
  5
640
  8
1
 10
8432.9106362633793
 20
17170.88067496875
 30
0.0
 11
14666.24396959671
 21
17170.88067496875
 31
0.0
  0
LINE
  5
641
  8
1
 10
8432.9106362633793
 20
16670.88067496875
 30
0.0
 11
8432.9106362633793
 21
17170.880674968739
 31
0.0
  0
LINE
  5
642
  8
0
 10
8432.9106362633847
 20
13184.111299325979
 30
0.0
 11
12965.81622044203
 21
13184.11129932597
 31
0.0
  0
LINE
  5
643
  8
1
 10
8432.9106362633847
 20
14517.44463265931
 30
0.0
 11
12965.81622044203
 21
14517.44463265931
 31
0.0
  0
INSERT
  5
644
  8
1
  2
*U63
 10
0.0
 20
0.0
 30
0.0
  0
LINE
  5
645
  8
1
 10
8432.9106362633847
 20
15140.896290833191
 30
0.0
 11
14166.24396959671
 21
15140.896290833191
 31
0.0
  0
TEXT
  5
646
  8
1
 10
8432.9106362633847
 20
15140.896290833191
 30
0.0
 40
1000.0
  1
高さを確認
  7
KANJI
 72
     2
 11
14166.24396959671
 21
15140.896290833191
 31
0.0
  0
LINE
  5
647
  8
1
 10
8432.9106362633847
 20
16140.896290833191
 30
0.0
 11
14166.24396959671
 21
16140.896290833191
 31
0.0
  0
LINE
  5
648
  8
1
 10
8432.9106362633847
 20
14517.44463265931
 30
0.0
 11
8432.9106362633847
 21
13184.111299325979
 31
0.0
  0
LINE
  5
649
  8
1
 10
8432.9106362633847
 20
15140.896290833191
 30
0.0
 11
8432.9106362633847
 21
16140.896290833191
 31
0.0
  0
LINE
  5
64A
  8
1
 10
12965.81622044203
 20
13184.11129932597
 30
0.0
 11
12965.81622044203
 21
14517.44463265931
 31
0.0
  0
LINE
  5
64D
  8
1
 10
14166.24396959671
 20
15140.896290833191
 30
0.0
 11
14166.24396959671
 21
16140.896290833191
 31
0.0
  0
LINE
  5
64E
  8
1
 10
8432.9106362633793
 20
19670.88067496871
 30
0.0
 11
8432.9106362633793
 21
20170.88067496871
 31
0.0
  0
LINE
  5
64F
  8
1
 10
8432.9106362633793
 20
17670.880674968739
 30
0.0
 11
8432.9106362633793
 21
18170.880674968728
 31
0.0
  0
LINE
  5
650
  8
1
 10
8432.9106362633793
 20
18670.880674968721
 30
0.0
 11
8432.9106362633793
 21
19170.880674968721
 31
0.0
  0
LINE
  5
651
  8
1
 10
8432.9106362633793
 20
20670.880674968699
 30
0.0
 11
8432.9106362633793
 21
21170.880674968699
 31
0.0
  0
LINE
  5
652
  8
1
 10
8432.9106362633793
 20
21670.880674968688
 30
0.0
 11
8432.9106362633793
 21
22170.880674968688
 31
0.0
  0
LINE
  5
653
  8
1
 10
14666.24396959671
 20
16670.880674968739
 30
0.0
 11
14666.24396959671
 21
17170.88067496875
 31
0.0
  0
LINE
  5
654
  8
1
 10
15266.24396959671
 20
19670.88067496871
 30
0.0
 11
15266.24396959671
 21
20170.88067496871
 31
0.0
  0
LINE
  5
655
  8
1
 10
15266.24396959671
 20
17670.880674968728
 30
0.0
 11
15266.24396959671
 21
18170.880674968728
 31
0.0
  0
LINE
  5
656
  8
1
 10
14666.24396959671
 20
18670.880674968721
 30
0.0
 11
14666.24396959671
 21
19170.880674968721
 31
0.0
  0
LINE
  5
657
  8
1
 10
14666.24396959671
 20
20670.880674968699
 30
0.0
 11
14666.24396959671
 21
21170.880674968699
 31
0.0
  0
LINE
  5
658
  8
1
 10
15266.24396959671
 20
21670.880674968688
 30
0.0
 11
15266.24396959671
 21
22170.880674968688
 31
0.0
  0
LINE
  5
659
  8
1
 10
8432.9106362633793
 20
26670.88067496867
 30
0.0
 11
15232.91063626337
 21
26670.880674968659
 31
0.0
  0
LINE
  5
65A
  8
1
 10
8432.9106362633793
 20
27170.88067496867
 30
0.0
 11
15232.91063626337
 21
27170.88067496867
 31
0.0
  0
TEXT
  5
65B
  8
1
 10
8432.9106362633811
 20
26670.88067496867
 30
0.0
 40
500.0
  1
txt/bigfont右寄せ
  7
KANJI
 72
     2
 11
15232.91063626337
 21
26670.88067496867
 31
0.0
  0
TEXT
  5
65C
  8
1
 10
8432.9106362633793
 20
25670.88067496867
 30
0.0
 40
500.0
  1
txt/bigfont中央
  7
KANJI
 72
     2
 11
14666.24396959671
 21
25670.88067496867
 31
0.0
  0
LINE
  5
65D
  8
1
 10
8432.9106362633793
 20
25670.88067496867
 30
0.0
 11
14666.24396959671
 21
25670.88067496867
 31
0.0
  0
LINE
  5
65E
  8
1
 10
8432.9106362633793
 20
26170.88067496867
 30
0.0
 11
14666.24396959671
 21
26170.88067496867
 31
0.0
  0
LINE
  5
65F
  8
1
 10
8432.9106362633793
 20
24670.880674968681
 30
0.0
 11
14666.24396959671
 21
24670.880674968681
 31
0.0
  0
LINE
  5
660
  8
1
 10
8432.9106362633793
 20
25170.880674968681
 30
0.0
 11
14666.24396959671
 21
25170.880674968681
 31
0.0
  0
TEXT
  5
661
  8
1
 10
8432.9106362633793
 20
24670.880674968681
 30
0.0
 40
500.0
  1
txt/bigfont左上
  7
KANJI
 11
8432.9106362633793
 21
25170.880674968681
 31
0.0
 73
     3
  0
TEXT
  5
662
  8
1
 10
8432.9106362633793
 20
27670.880674968659
 30
0.0
 40
500.0
  1
txt/bigfontフィット
 41
0.9272727272727273
  7
KANJI
 72
     5
 11
15232.91063626337
 21
27670.880674968659
 31
0.0
  0
LINE
  5
663
  8
1
 10
8432.9106362633793
 20
27670.880674968659
 30
0.0
 11
15232.91063626337
 21
27670.880674968659
 31
0.0
  0
LINE
  5
664
  8
1
 10
8432.9106362633793
 20
28170.88067496867
 30
0.0
 11
15232.91063626337
 21
28170.88067496867
 31
0.0
  0
LINE
  5
665
  8
1
 10
8432.9106362633793
 20
22670.880674968688
 30
0.0
 11
14666.24396959671
 21
22670.880674968681
 31
0.0
  0
LINE
  5
666
  8
1
 10
8432.9106362633793
 20
23170.880674968688
 30
0.0
 11
14666.24396959671
 21
23170.880674968688
 31
0.0
  0
LINE
  5
667
  8
1
 10
8432.9106362633793
 20
23670.880674968681
 30
0.0
 11
15266.24396959671
 21
23670.880674968681
 31
0.0
  0
LINE
  5
668
  8
1
 10
8432.9106362633793
 20
24170.880674968688
 30
0.0
 11
15266.24396959671
 21
24170.880674968688
 31
0.0
  0
TEXT
  5
669
  8
1
 10
8432.9106362633793
 20
23670.880674968681
 30
0.0
 40
500.0
  1
txt/bigfont上中心
  7
KANJI
 72
     1
 11
11849.57730293004
 21
24170.880674968688
 31
0.0
 73
     3
  0
TEXT
  5
66A
  8
1
 10
8432.9106362633793
 20
28670.88067496867
 30
0.0
 40
500.0
  1
txt/bigfont
  7
KANJI
  0
LINE
  5
66B
  8
1
 10
8432.9106362633793
 20
23670.880674968681
 30
0.0
 11
8432.9106362633793
 21
24170.880674968681
 31
0.0
  0
LINE
  5
66C
  8
1
 10
8432.9106362633793
 20
22670.880674968688
 30
0.0
 11
8432.9106362633793
 21
23170.880674968688
 31
0.0
  0
LINE
  5
66D
  8
1
 10
8432.9106362633793
 20
24670.880674968681
 30
0.0
 11
8432.9106362633793
 21
25170.88067496867
 31
0.0
  0
LINE
  5
66E
  8
1
 10
8432.9106362633793
 20
26670.88067496867
 30
0.0
 11
8432.9106362633793
 21
27170.880674968659
 31
0.0
  0
LINE
  5
66F
  8
1
 10
8432.9106362633793
 20
25670.88067496867
 30
0.0
 11
8432.9106362633793
 21
26170.88067496867
 31
0.0
  0
LINE
  5
670
  8
1
 10
8432.9106362633793
 20
27670.880674968659
 30
0.0
 11
8432.9106362633793
 21
28170.880674968659
 31
0.0
  0
LINE
  5
671
  8
1
 10
8432.9106362633793
 20
29170.88067496867
 30
0.0
 11
13432.91063626337
 21
29170.88067496867
 31
0.0
  0
LINE
  5
672
  8
1
 10
8432.9106362633793
 20
28670.88067496867
 30
0.0
 11
13432.91063626337
 21
28670.88067496867
 31
0.0
  0
LINE
  5
673
  8
1
 10
8432.9106362633793
 20
28670.88067496867
 30
0.0
 11
8432.9106362633793
 21
29170.880674968659
 31
0.0
  0
LINE
  5
674
  8
1
 10
13432.91063626337
 20
28670.88067496867
 30
0.0
 11
13432.91063626337
 21
29170.88067496867
 31
0.0
  0
LINE
  5
675
  8
1
 10
15266.24396959671
 20
23670.880674968681
 30
0.0
 11
15266.24396959671
 21
24170.880674968688
 31
0.0
  0
LINE
  5
676
  8
1
 10
14666.24396959671
 20
22670.880674968681
 30
0.0
 11
14666.24396959671
 21
23170.880674968688
 31
0.0
  0
LINE
  5
677
  8
1
 10
14666.24396959671
 20
24670.880674968681
 30
0.0
 11
14666.24396959671
 21
25170.880674968681
 31
0.0
  0
LINE
  5
678
  8
1
 10
15232.91063626337
 20
26670.880674968659
 30
0.0
 11
15232.91063626337
 21
27170.88067496867
 31
0.0
  0
LINE
  5
679
  8
1
 10
14666.24396959671
 20
25670.88067496867
 30
0.0
 11
14666.24396959671
 21
26170.88067496867
 31
0.0
  0
LINE
  5
67A
  8
1
 10
15232.91063626337
 20
27670.880674968659
 30
0.0
 11
15232.91063626337
 21
28170.88067496867
 31
0.0
  0
LINE
  5
67D
  8
0
 10
17739.86399912307
 20
23517.206009005909
 30
0.0
 11
17739.86399912307
 21
23517.206009005909
 31
0.0
  0
LINE
  5
67E
  8
0
 10
17739.86399912307
 20
23517.206009005909
 30
0.0
 11
17739.86399912307
 21
23517.206009005909
 31
0.0
  0
LINE
  5
680
  8
0
 10
17739.86399912307
 20
23517.206009005899
 30
0.0
 11
18739.863999123081
 21
23517.206009005899
 31
0.0
  0
TEXT
  5
681
  8
1
 10
25683.308734635291
 20
21085.438817121259
 30
0.0
 40
500.0
  1
txt/bigfont右上
  7
KANJI3
 72
     2
 11
25683.308734635291
 21
12102.105483787929
 31
0.0
 73
     3
  0
TEXT
  5
685
  8
1
 10
21683.30873463532
 20
21085.438817121259
 30
0.0
 40
500.0
  1
txt/bigfont左下
  7
KANJI3
 11
21683.30873463532
 21
21085.438817121259
 31
0.0
 73
     1
  0
TEXT
  5
686
  8
1
 10
22683.30873463531
 20
21085.438817121259
 30
0.0
 40
500.0
  1
txt/bigfont右中央
  7
KANJI3
 72
     2
 11
22683.30873463531
 21
11468.772150454601
 31
0.0
 73
     2
  0
TEXT
  5
689
  8
1
 10
23683.308734635299
 20
21085.438817121259
 30
0.0
 40
500.0
  1
txt/bigfont中央
  7
KANJI3
 72
     1
 11
23683.308734635299
 21
16577.10548378792
 31
0.0
 73
     2
  0
TEXT
  5
68E
  8
1
 10
24683.308734635299
 20
21085.438817121259
 30
0.0
 40
500.0
  1
txt/bigfont左中央
  7
KANJI3
 11
24683.308734635299
 21
21085.438817121259
 31
0.0
 73
     2
  0
TEXT
  5
697
  8
1
 10
26683.30873463528
 20
21085.438817121259
 30
0.0
 40
500.0
  1
txt/bigfont上中心
  7
KANJI3
 72
     1
 11
26683.30873463528
 21
16277.105483787929
 31
0.0
 73
     3
  0
TEXT
  5
69E
  8
1
 10
30683.30873463527
 20
21085.438817121259
 30
0.0
 40
500.0
  1
txt/bigfontフィット
 41
0.6677577741407528
  7
KANJI3
 72
     2
 11
30683.30873463527
 21
10902.10548378792
 31
0.0
  0
TEXT
  5
69F
  8
1
 10
27683.30873463528
 20
21085.438817121259
 30
0.0
 40
500.0
  1
txt/bigfont左上
  7
KANJI3
 11
27683.30873463528
 21
21085.438817121259
 31
0.0
 73
     3
  0
LINE
  5
6A2
  8
1
 10
28933.30873463527
 20
21085.438817121259
 30
0.0
 11
28933.30873463527
 21
12068.77215045459
 31
0.0
  0
LINE
  5
6A3
  8
1
 10
28433.30873463527
 20
21085.438817121259
 30
0.0
 11
28433.308734635259
 21
12068.77215045459
 31
0.0
  0
TEXT
  5
6A4
  8
1
 10
28683.30873463527
 20
21085.438817121259
 30
0.0
 40
500.0
  1
txt/bigfont中央
  7
KANJI3
 72
     2
 11
28683.30873463527
 21
12068.77215045459
 31
0.0
  0
TEXT
  5
6A5
  8
1
 10
29683.30873463527
 20
21085.438817121259
 30
0.0
 40
500.0
  1
txt/bigfont右寄せ
  7
KANJI3
 72
     2
 11
29683.30873463527
 21
11502.10548378792
 31
0.0
  0
TEXT
  5
6A8
  8
1
 10
31683.308734635259
 20
21085.438817121259
 30
0.0
 40
500.0
  1
txt/bigfont
  7
KANJI3
 72
     2
 11
31683.308734635259
 21
13418.77215045459
 31
0.0
  0
TEXT
  5
6BB
  8
1
 10
19683.30873463535
 20
21085.438817121259
 30
0.0
 40
500.0
  1
txt/bigfont右下
  7
KANJI3
 72
     2
 11
19683.30873463535
 21
12068.772150454601
 31
0.0
 73
     1
  0
TEXT
  5
6BD
  8
1
 10
20683.308734635331
 20
21085.438817121259
 30
0.0
 40
500.0
  1
txt/bigfont下中心
  7
KANJI3
 72
     1
 11
20683.308734635331
 21
16277.105483787929
 31
0.0
 73
     1
  0
LINE
  5
6BF
  8
1
 10
18903.324350499799
 20
21085.438817121259
 30
0.0
 11
18903.324350499799
 21
16485.438817121259
 31
0.0
  0
TEXT
  5
6C0
  8
1
 10
18403.324350499799
 20
21085.438817121259
 30
0.0
 40
1000.0
  1
幅を確認
  7
KANJI3
  0
LINE
  5
6C1
  8
1
 10
17903.324350499799
 20
21085.438817121259
 30
0.0
 11
17903.324350499799
 21
16485.438817121259
 31
0.0
  0
INSERT
  5
6C2
  8
1
  2
*U64
 10
0.0
 20
0.0
 30
0.0
  0
LINE
  5
6C3
  8
1
 10
17479.87269232592
 20
21085.438817121259
 30
0.0
 11
17479.87269232592
 21
15002.245518275209
 31
0.0
  0
LINE
  5
6C4
  8
0
 10
15946.539358992581
 20
21085.438817121259
 30
0.0
 11
15946.53935899257
 21
15002.245518275209
 31
0.0
  0
LINE
  5
6C5
  8
1
 10
17479.87269232592
 20
21085.438817121259
 30
0.0
 11
15946.539358992581
 21
21085.438817121259
 31
0.0
  0
LINE
  5
6C6
  8
1
 10
17903.324350499799
 20
21085.438817121259
 30
0.0
 11
18903.324350499799
 21
21085.438817121259
 31
0.0
  0
LINE
  5
6C7
  8
1
 10
15946.53935899257
 20
15002.245518275209
 30
0.0
 11
17479.87269232592
 21
15002.245518275209
 31
0.0
  0
LINE
  5
6CC
  8
0
 10
17903.324350499799
 20
16485.438817121259
 30
0.0
 11
18903.324350499799
 21
16485.438817121259
 31
0.0
  0
LINE
  5
6CD
  8
0
 10
28433.308734635259
 20
12068.77215045459
 30
0.0
 11
28933.30873463527
 21
12068.77215045459
 31
0.0
  0
LINE
  5
6CF
  8
0
 10
28433.30873463527
 20
21085.438817121259
 30
0.0
 11
28933.30873463527
 21
21085.438817121259
 31
0.0
  0
LINE
  5
6D0
  8
1
 10
27433.30873463527
 20
21085.438817121259
 30
0.0
 11
27433.30873463527
 21
12102.105483787929
 31
0.0
  0
LINE
  5
6D1
  8
1
 10
27933.30873463528
 20
21085.438817121259
 30
0.0
 11
27933.30873463527
 21
12102.105483787929
 31
0.0
  0
LINE
  5
6D3
  8
0
 10
27433.30873463527
 20
21085.438817121259
 30
0.0
 11
27933.30873463528
 21
21085.438817121259
 31
0.0
  0
LINE
  5
6D4
  8
0
 10
26433.30873463528
 20
21085.438817121259
 30
0.0
 11
26933.30873463528
 21
21085.438817121259
 31
0.0
  0
LINE
  5
6D8
  8
0
 10
25433.30873463528
 20
21085.438817121259
 30
0.0
 11
25933.30873463528
 21
21085.438817121259
 31
0.0
  0
LINE
  5
6D9
  8
0
 10
25433.30873463527
 20
12102.105483787929
 30
0.0
 11
25933.30873463528
 21
12102.105483787929
 31
0.0
  0
LINE
  5
6DA
  8
1
 10
25433.30873463528
 20
21085.438817121259
 30
0.0
 11
25433.30873463527
 21
12102.105483787929
 31
0.0
  0
LINE
  5
6DB
  8
1
 10
25933.30873463528
 20
21085.438817121259
 30
0.0
 11
25933.30873463528
 21
12102.105483787929
 31
0.0
  0
LINE
  5
6DC
  8
0
 10
24433.308734635291
 20
21085.438817121259
 30
0.0
 11
24933.308734635291
 21
21085.438817121259
 31
0.0
  0
LINE
  5
6F0
  8
0
 10
27433.30873463527
 20
12102.105483787929
 30
0.0
 11
27933.30873463527
 21
12102.105483787929
 31
0.0
  0
LINE
  5
6F1
  8
1
 10
29433.30873463527
 20
21085.438817121259
 30
0.0
 11
29433.308734635259
 21
11502.105483787929
 31
0.0
  0
LINE
  5
6F2
  8
1
 10
29933.30873463527
 20
21085.438817121259
 30
0.0
 11
29933.30873463527
 21
11502.10548378792
 31
0.0
  0
LINE
  5
6F3
  8
0
 10
29433.308734635259
 20
11502.105483787929
 30
0.0
 11
29933.30873463527
 21
11502.10548378792
 31
0.0
  0
LINE
  5
6F4
  8
0
 10
29433.30873463527
 20
21085.438817121259
 30
0.0
 11
29933.30873463527
 21
21085.438817121259
 31
0.0
  0
LINE
  5
6FA
  8
1
 10
26433.30873463528
 20
21085.438817121259
 30
0.0
 11
26433.30873463528
 21
11468.772150454601
 31
0.0
  0
LINE
  5
6FB
  8
1
 10
26933.30873463528
 20
21085.438817121259
 30
0.0
 11
26933.30873463528
 21
11468.772150454601
 31
0.0
  0
LINE
  5
6FD
  8
0
 10
26433.30873463528
 20
21085.438817121259
 30
0.0
 11
26933.30873463528
 21
21085.438817121259
 31
0.0
  0
LINE
  5
6FE
  8
0
 10
26433.30873463528
 20
11468.772150454601
 30
0.0
 11
26933.30873463528
 21
11468.772150454601
 31
0.0
  0
LINE
  5
6FF
  8
1
 10
24433.308734635291
 20
21085.438817121259
 30
0.0
 11
24433.308734635291
 21
11468.772150454601
 31
0.0
  0
LINE
  5
700
  8
1
 10
24933.308734635291
 20
21085.438817121259
 30
0.0
 11
24933.30873463528
 21
11468.772150454601
 31
0.0
  0
LINE
  5
701
  8
0
 10
24433.308734635291
 20
11468.772150454601
 30
0.0
 11
24933.30873463528
 21
11468.772150454601
 31
0.0
  0
LINE
  5
702
  8
0
 10
24433.308734635291
 20
21085.438817121259
 30
0.0
 11
24933.308734635291
 21
21085.438817121259
 31
0.0
  0
LINE
  5
703
  8
0
 10
24433.308734635291
 20
21085.438817121259
 30
0.0
 11
24933.308734635291
 21
21085.438817121259
 31
0.0
  0
LINE
  5
704
  8
1
 10
23433.308734635291
 20
21085.438817121259
 30
0.0
 11
23433.30873463528
 21
12068.77215045459
 31
0.0
  0
LINE
  5
705
  8
1
 10
23933.308734635291
 20
21085.438817121259
 30
0.0
 11
23933.308734635291
 21
12068.77215045459
 31
0.0
  0
LINE
  5
706
  8
0
 10
23433.30873463528
 20
12068.77215045459
 30
0.0
 11
23933.308734635291
 21
12068.77215045459
 31
0.0
  0
LINE
  5
707
  8
0
 10
23433.308734635291
 20
21085.438817121259
 30
0.0
 11
23933.308734635291
 21
21085.438817121259
 31
0.0
  0
LINE
  5
708
  8
1
 10
22933.308734635299
 20
21085.438817121259
 30
0.0
 11
22933.308734635291
 21
11468.772150454601
 31
0.0
  0
LINE
  5
709
  8
1
 10
22433.308734635291
 20
21085.438817121259
 30
0.0
 11
22433.308734635291
 21
11468.772150454601
 31
0.0
  0
LINE
  5
70A
  8
0
 10
22433.308734635291
 20
11468.772150454601
 30
0.0
 11
22933.308734635291
 21
11468.772150454601
 31
0.0
  0
LINE
  5
70B
  8
0
 10
22433.308734635291
 20
21085.438817121259
 30
0.0
 11
22933.308734635299
 21
21085.438817121259
 31
0.0
  0
LINE
  5
70C
  8
0
 10
22433.308734635291
 20
21085.438817121259
 30
0.0
 11
22933.308734635299
 21
21085.438817121259
 31
0.0
  0
LINE
  5
70D
  8
0
 10
22433.308734635291
 20
21085.438817121259
 30
0.0
 11
22933.308734635299
 21
21085.438817121259
 31
0.0
  0
LINE
  5
70E
  8
1
 10
21933.308734635299
 20
21085.438817121259
 30
0.0
 11
21933.308734635291
 21
12068.77215045459
 31
0.0
  0
LINE
  5
70F
  8
1
 10
21433.308734635299
 20
21085.438817121259
 30
0.0
 11
21433.308734635291
 21
12068.77215045459
 31
0.0
  0
LINE
  5
710
  8
0
 10
21433.308734635291
 20
12068.77215045459
 30
0.0
 11
21933.308734635291
 21
12068.77215045459
 31
0.0
  0
LINE
  5
711
  8
0
 10
21433.308734635299
 20
21085.438817121259
 30
0.0
 11
21933.308734635299
 21
21085.438817121259
 31
0.0
  0
LINE
  5
712
  8
1
 10
20433.308734635299
 20
21085.438817121259
 30
0.0
 11
20433.308734635299
 21
11468.772150454601
 31
0.0
  0
LINE
  5
713
  8
1
 10
20933.308734635299
 20
21085.438817121259
 30
0.0
 11
20933.308734635299
 21
11468.772150454601
 31
0.0
  0
LINE
  5
714
  8
0
 10
20433.308734635299
 20
11468.772150454601
 30
0.0
 11
20933.308734635299
 21
11468.772150454601
 31
0.0
  0
LINE
  5
715
  8
0
 10
20433.308734635299
 20
21085.438817121259
 30
0.0
 11
20933.308734635299
 21
21085.438817121259
 31
0.0
  0
LINE
  5
716
  8
0
 10
20433.308734635299
 20
21085.438817121259
 30
0.0
 11
20933.308734635299
 21
21085.438817121259
 31
0.0
  0
LINE
  5
717
  8
1
 10
19433.30873463531
 20
21085.438817121259
 30
0.0
 11
19433.308734635299
 21
12068.77215045459
 31
0.0
  0
LINE
  5
718
  8
1
 10
19933.30873463531
 20
21085.438817121259
 30
0.0
 11
19933.308734635299
 21
12068.77215045459
 31
0.0
  0
LINE
  5
719
  8
0
 10
19433.308734635299
 20
12068.77215045459
 30
0.0
 11
19933.308734635299
 21
12068.77215045459
 31
0.0
  0
LINE
  5
71A
  8
0
 10
19433.30873463531
 20
21085.438817121259
 30
0.0
 11
19933.30873463531
 21
21085.438817121259
 31
0.0
  0
LINE
  5
720
  8
1
 10
31433.30873463527
 20
21085.438817121259
 30
0.0
 11
31433.308734635259
 21
13418.772150454601
 31
0.0
  0
LINE
  5
721
  8
1
 10
31933.30873463527
 20
21085.438817121259
 30
0.0
 11
31933.30873463527
 21
13418.77215045459
 31
0.0
  0
LINE
  5
722
  8
0
 10
31433.308734635259
 20
13418.772150454601
 30
0.0
 11
31933.30873463527
 21
13418.77215045459
 31
0.0
  0
LINE
  5
723
  8
0
 10
31433.30873463527
 20
21085.438817121259
 30
0.0
 11
31933.30873463527
 21
21085.438817121259
 31
0.0
  0
LINE
  5
726
  8
1
 10
30516.608734635261
 20
21085.438817121259
 30
0.0
 11
30516.608734635261
 21
10902.10548378792
 31
0.0
  0
LINE
  5
727
  8
1
 10
30850.00873463527
 20
21085.438817121259
 30
0.0
 11
30850.00873463527
 21
10902.10548378792
 31
0.0
  0
LINE
  5
729
  8
0
 10
30516.608734635261
 20
10902.10548378792
 30
0.0
 11
30850.00873463527
 21
10902.10548378792
 31
0.0
  0
LINE
  5
72A
  8
0
 10
30516.608734635261
 20
21085.438817121259
 30
0.0
 11
30850.00873463527
 21
21085.438817121259
 31
0.0
  0
LINE
  5
730
  8
0
 10
30731.972455416279
 20
7516.9220760315229
 30
0.0
 11
29231.972455416279
 21
10114.998287384829
 31
0.0
  0
LINE
  5
731
  8
0
 10
30731.972455416279
 20
7516.9220760315229
 30
0.0
 11
27731.972455416279
 21
7516.9220760315229
 31
0.0
  0
LINE
  5
732
  8
0
 10
27731.972455416279
 20
7516.9220760315229
 30
0.0
 11
29231.972455416279
 21
10114.998287384829
 31
0.0
  0
LINE
  5
735
  8
0
 10
27731.972455416279
 20
9465.4792345465085
 30
0.0
 11
29231.972455416279
 21
6867.4030231931938
 31
0.0
  0
LINE
  5
736
  8
0
 10
27731.972455416279
 20
9465.4792345465085
 30
0.0
 11
30731.972455416279
 21
9465.4792345465085
 31
0.0
  0
LINE
  5
737
  8
0
 10
30731.972455416279
 20
9465.4792345465085
 30
0.0
 11
29231.972455416279
 21
6867.4030231931938
 31
0.0
  0
TEXT
  5
73B
  8
0
 10
27375.985220361581
 20
10232.278067765081
 30
0.0
 40
500.0
  1
グループ図形
  7
KANJI
  0
TEXT
  5
73C
  8
0
 10
23443.86458478673
 20
10232.278067765081
 30
0.0
 40
500.0
  1
ブロック図形
  7
KANJI
  0
INSERT
  5
74D
  8
0
  2
NONAME
 10
12199.75897743096
 20
4508.9789285402103
 30
0.0
 41
0.6
 42
0.6
 43
0.6
  0
LINE
  5
74E
  8
0
 10
40162.959307891368
 20
8789.5158270274333
 30
0.0
 11
40162.959307891368
 21
6789.515827027426
 31
0.0
  0
LINE
  5
74F
  8
0
 10
38110.783546968618
 20
8789.5158270274333
 30
0.0
 11
38110.783546968618
 21
6789.5158270274278
 31
0.0
  0
LINE
  5
750
  8
0
 10
36162.959307891382
 20
6789.5158270274287
 30
0.0
 11
36162.959307891382
 21
8789.5158270274333
 31
0.0
  0
LINE
  5
752
  8
0
 10
34144.217405715019
 20
8789.5158270274333
 30
0.0
 11
34144.217405715019
 21
6789.5158270274324
 31
0.0
  0
LINE
  5
753
  8
0
 10
32162.959307891371
 20
8789.5158270274333
 30
0.0
 11
32162.959307891371
 21
6789.5158270274351
 31
0.0
  0
DIMENSION
  5
755
  8
0
  2
*D10
 10
3334.8316700276482
 20
4323.3548996505697
 30
0.0
 11
2084.8316700276482
 21
4535.8548996505697
 31
0.0
 70
     0
 13
834.83167002764822
 23
3391.885493772555
 33
0.0
 14
3334.8316700276482
 24
3391.885493772555
 34
0.0
1001
ACAD
1000
DSTYLE
1002
{
1070
     6
1000

1070
   173
1070
     1
1070
     7
1000

1070
    40
1040
100.0
1002
}
  0
DIMENSION
  5
801
  8
0
  2
*D12
 10
5834.8316700276482
 20
4323.3548996505697
 30
0.0
 11
4584.8316700276482
 21
4535.8548996505697
 31
0.0
 70
     0
 13
3334.8316700276482
 23
3391.885493772555
 33
0.0
 14
5834.8316700276482
 24
3391.885493772555
 34
0.0
1001
ACAD
1000
DSTYLE
1002
{
1070
     6
1000
CLOSEDBLANK
1070
   173
1070
     1
1070
     7
1000
CLOSEDBLANK
1070
    40
1040
100.0
1002
}
  0
TEXT
  5
83A
  8
0
 10
684.83167002764753
 20
5515.901028694454
 30
0.0
 40
500.0
  1
塗りつぶし
  7
KANJI
 72
     1
 11
2084.8316700276469
 21
5515.901028694454
 31
0.0
  0
TEXT
  5
83B
  8
0
 10
1568.165003360981
 20
4919.6279641725123
 30
0.0
 40
500.0
  1
矢印
  7
KANJI
 72
     1
 11
2084.8316700276482
 21
4919.6279641725123
 31
0.0
  0
TEXT
  5
83C
  8
0
 10
3768.1650033609822
 20
4919.6279641725123
 30
0.0
 40
500.0
  1
空矢印
  7
KANJI
 72
     1
 11
4584.8316700276482
 21
4919.6279641725123
 31
0.0
  0
DIMENSION
  5
83D
  8
0
  2
*D14
 10
8334.8316700276482
 20
4323.3548996505697
 30
0.0
 11
7084.8316700276482
 21
4535.8548996505697
 31
0.0
 70
     0
 13
5834.8316700276482
 23
3391.885493772555
 33
0.0
 14
8334.8316700276482
 24
3391.885493772555
 34
0.0
1001
ACAD
1000
DSTYLE
1002
{
1070
     6
1000
CLOSED
1070
   173
1070
     1
1070
     7
1000
CLOSED
1070
    40
1040
100.0
1002
}
  0
TEXT
  5
865
  8
0
 10
6251.4983366943152
 20
4919.6279641725123
 30
0.0
 40
500.0
  1
閉矢印
  7
KANJI
 72
     1
 11
7084.8316700276482
 21
4919.6279641725123
 31
0.0
  0
DIMENSION
  5
866
  8
0
  2
*D15
 10
10834.831670027639
 20
4323.3548996505697
 30
0.0
 11
9584.8316700276482
 21
4535.8548996505697
 31
0.0
 70
     0
 13
8334.8316700276482
 23
3391.885493772555
 33
0.0
 14
10834.831670027639
 24
3391.885493772555
 34
0.0
1001
ACAD
1000
DSTYLE
1002
{
1070
     6
1000
DOT
1070
   173
1070
     1
1070
     7
1000
DOT
1070
    40
1040
100.0
1002
}
  0
TEXT
  5
893
  8
0
 10
9051.4983366943125
 20
4919.6279641725123
 30
0.0
 40
500.0
  1
黒丸
  7
KANJI
 72
     1
 11
9584.8316700276482
 21
4919.6279641725123
 31
0.0
  0
TEXT
  5
89C
  8
0
 10
11534.831670027639
 20
4919.6279641725123
 30
0.0
 40
500.0
  1
(太)
  7
KANJI
 72
     1
 11
12084.831670027639
 21
4919.6279641725123
 31
0.0
  0
DIMENSION
  5
89D
  8
0
  2
*D17
 10
13334.831670027639
 20
4323.3548996505697
 30
0.0
 11
12084.831670027639
 21
4535.8548996505697
 31
0.0
 70
     0
 13
10834.831670027639
 23
3391.885493772555
 33
0.0
 14
13334.831670027639
 24
3391.885493772555
 34
0.0
1001
ACAD
1000
DSTYLE
1002
{
1070
     6
1000
ARCHTICK
1070
   173
1070
     1
1070
     7
1000
ARCHTICK
1070
    40
1040
100.0
1002
}
  0
TEXT
  5
8C9
  8
0
 10
13468.16500336098
 20
4919.6279641725123
 30
0.0
 40
500.0
  1
ティック
  7
KANJI
 72
     1
 11
14584.831670027639
 21
4919.6279641725123
 31
0.0
  0
DIMENSION
  5
8CA
  8
0
  2
*D19
 10
15834.831670027639
 20
4323.3548996505697
 30
0.0
 11
14584.831670027639
 21
4535.8548996505697
 31
0.0
 70
     0
 13
13334.831670027639
 23
3391.885493772555
 33
0.0
 14
15834.831670027639
 24
3391.885493772555
 34
0.0
1001
ACAD
1000
DSTYLE
1002
{
1070
     6
1000
OBLIQUE
1070
   173
1070
     1
1070
     7
1000
OBLIQUE
1070
    40
1040
100.0
1002
}
  0
TEXT
  5
8F6
  8
0
 10
10968.16500336098
 20
5452.8942228734086
 30
0.0
 40
500.0
  1
ティック
  7
KANJI
 72
     1
 11
12084.831670027639
 21
5452.8942228734086
 31
0.0
  0
DIMENSION
  5
8F7
  8
0
  2
*D21
 10
18334.831670027641
 20
4323.3548996505697
 30
0.0
 11
17084.831670027641
 21
4535.8548996505697
 31
0.0
 70
     0
 13
15834.831670027639
 23
3391.885493772555
 33
0.0
 14
18334.831670027641
 24
3391.885493772555
 34
0.0
1001
ACAD
1000
DSTYLE
1002
{
1070
     6
1000
OPEN
1070
   173
1070
     1
1070
     7
1000
OPEN
1070
    40
1040
100.0
1002
}
  0
TEXT
  5
8F8
  8
0
 10
16251.498336694311
 20
4919.6279641725123
 30
0.0
 40
500.0
  1
開矢印
  7
KANJI
 72
     1
 11
17084.831670027641
 21
4919.6279641725123
 31
0.0
  0
DIMENSION
  5
92F
  8
0
  2
*D23
 10
20834.831670027641
 20
4323.3548996505697
 30
0.0
 11
19584.831670027641
 21
4535.8548996505697
 31
0.0
 70
     0
 13
18334.831670027641
 23
3391.885493772555
 33
0.0
 14
20834.831670027641
 24
3391.885493772555
 34
0.0
1001
ACAD
1000
DSTYLE
1002
{
1070
     6
1000
ORIGIN
1070
   173
1070
     1
1070
     7
1000
ORIGIN
1070
    40
1040
100.0
1002
}
  0
TEXT
  5
930
  8
0
 10
18868.16500336098
 20
4919.6279641725123
 30
0.0
 40
500.0
  1
白丸1
  7
KANJI
 72
     1
 11
19584.831670027641
 21
4919.6279641725123
 31
0.0
  0
DIMENSION
  5
97D
  8
0
  2
*D25
 10
23334.831670027648
 20
4323.3548996505697
 30
0.0
 11
22084.831670027648
 21
4535.8548996505697
 31
0.0
 70
     0
 13
20834.831670027641
 23
3391.885493772555
 33
0.0
 14
23334.831670027648
 24
3391.885493772555
 34
0.0
1001
ACAD
1000
DSTYLE
1002
{
1070
     6
1000
ORIGIN2
1070
   173
1070
     1
1070
     7
1000
ORIGIN2
1070
    40
1040
100.0
1002
}
  0
TEXT
  5
97E
  8
0
 10
21284.831670027648
 20
4919.6279641725123
 30
0.0
 40
500.0
  1
白丸2
  7
KANJI
 72
     1
 11
22084.831670027648
 21
4919.6279641725123
 31
0.0
  0
DIMENSION
  5
9C3
  8
0
  2
*D27
 10
25834.831670027648
 20
4323.3548996505697
 30
0.0
 11
24584.831670027648
 21
4535.8548996505697
 31
0.0
 70
     0
 13
23334.831670027648
 23
3391.885493772555
 33
0.0
 14
25834.831670027648
 24
3391.885493772555
 34
0.0
1001
ACAD
1000
DSTYLE
1002
{
1070
     6
1000
OPEN90
1070
   173
1070
     1
1070
     7
1000
OPEN90
1070
    40
1040
100.0
1002
}
  0
TEXT
  5
9C4
  8
0
 10
23468.16500336098
 20
4919.6279641725123
 30
0.0
 40
500.0
  1
直角矢印
  7
KANJI
 72
     1
 11
24584.831670027648
 21
4919.6279641725123
 31
0.0
  0
DIMENSION
  5
AAF
  8
0
  2
*D29
 10
28334.831670027648
 20
4323.3548996505697
 30
0.0
 11
27084.831670027648
 21
4535.8548996505697
 31
0.0
 70
     0
  1
<>
 13
25834.831670027648
 23
3391.885493772555
 33
0.0
 14
28334.831670027648
 24
3391.885493772555
 34
0.0
1001
ACAD
1000
DSTYLE
1002
{
1070
     6
1000
OPEN30
1070
   173
1070
     1
1070
     7
1000
OPEN30
1070
    40
1040
100.0
1002
}
  0
TEXT
  5
AB0
  8
0
 10
25809.831670027641
 20
4919.6279641725123
 30
0.0
 40
500.0
  1
30°矢印
  7
KANJI
 72
     1
 11
27084.831670027648
 21
4919.6279641725123
 31
0.0
  0
TEXT
  5
AE7
  8
0
 10
28751.498336694309
 20
4919.6279641725123
 30
0.0
 40
500.0
  1
小黒丸
  7
KANJI
 72
     1
 11
29584.831670027648
 21
4919.6279641725123
 31
0.0
  0
DIMENSION
  5
AE8
  8
0
  2
*D31
 10
30834.831670027648
 20
4323.3548996505697
 30
0.0
 11
29584.831670027648
 21
4535.8548996505697
 31
0.0
 70
     0
  1
<>
 13
28334.831670027648
 23
3391.885493772555
 33
0.0
 14
30834.831670027648
 24
3391.885493772555
 34
0.0
1001
ACAD
1000
DSTYLE
1002
{
1070
     6
1000
DOTSMALL
1070
   173
1070
     1
1070
     7
1000
DOTSMALL
1070
    40
1040
100.0
1002
}
  0
DIMENSION
  5
B1D
  8
0
  2
*D33
 10
33334.831670027648
 20
4323.3548996505697
 30
0.0
 11
32084.831670027648
 21
4535.8548996505697
 31
0.0
 70
     0
  1
<>
 13
30834.831670027648
 23
3391.885493772555
 33
0.0
 14
33334.831670027648
 24
3391.885493772555
 34
0.0
1001
ACAD
1000
DSTYLE
1002
{
1070
     6
1000
DOTBLANK
1070
   173
1070
     1
1070
     7
1000
DOTBLANK
1070
    40
1040
100.0
1002
}
  0
TEXT
  5
B1E
  8
0
 10
31251.498336694309
 20
4919.6279641725123
 30
0.0
 40
500.0
  1
空白丸
  7
KANJI
 72
     1
 11
32084.831670027648
 21
4919.6279641725123
 31
0.0
  0
DIMENSION
  5
B55
  8
0
  2
*D35
 10
35834.831670027648
 20
4323.3548996505697
 30
0.0
 11
34584.831670027648
 21
4535.8548996505697
 31
0.0
 70
     0
  1
<>
 13
33334.831670027648
 23
3391.885493772555
 33
0.0
 14
35834.831670027648
 24
3391.885493772555
 34
0.0
1001
ACAD
1000
DSTYLE
1002
{
1070
     6
1000
SMALL
1070
   173
1070
     1
1070
     7
1000
SMALL
1070
    40
1040
100.0
1002
}
  0
TEXT
  5
B56
  8
0
 10
33451.498336694312
 20
4919.6279641725123
 30
0.0
 40
500.0
  1
小空白丸
  7
KANJI
 72
     1
 11
34584.831670027648
 21
4919.6279641725123
 31
0.0
  0
TEXT
  5
B82
  8
0
 10
36551.498336694312
 20
4919.6279641725123
 30
0.0
 40
500.0
  1
四角
  7
KANJI
 72
     1
 11
37084.831670027648
 21
4919.6279641725123
 31
0.0
  0
DIMENSION
  5
B83
  8
0
  2
*D37
 10
38334.831670027648
 20
4323.3548996505697
 30
0.0
 11
37084.831670027648
 21
4535.8548996505697
 31
0.0
 70
     0
  1
<>
 13
35834.831670027648
 23
3391.885493772555
 33
0.0
 14
38334.831670027648
 24
3391.885493772555
 34
0.0
1001
ACAD
1000
DSTYLE
1002
{
1070
     6
1000
BOXBLANK
1070
   173
1070
     1
1070
     7
1000
BOXBLANK
1070
    40
1040
100.0
1002
}
  0
TEXT
  5
E64
  8
0
 10
39051.498336694312
 20
4919.6279641725123
 30
0.0
 40
500.0
  1
四角
  7
KANJI
 72
     1
 11
39584.831670027648
 21
4919.6279641725123
 31
0.0
  0
DIMENSION
  5
E65
  8
0
  2
*D39
 10
40834.831670027641
 20
4323.3548996505697
 30
0.0
 11
39584.831670027648
 21
4535.8548996505697
 31
0.0
 70
     0
  1
<>
 13
38334.831670027648
 23
3391.885493772555
 33
0.0
 14
40834.831670027641
 24
3391.885493772555
 34
0.0
1001
ACAD
1000
DSTYLE
1002
{
1070
     6
1000
BOXFILLED
1070
   173
1070
     1
1070
     7
1000
BOXFILLED
1070
    40
1040
100.0
1002
}
  0
TEXT
  5
E92
  8
0
 10
38184.831670027648
 20
5419.6279641725123
 30
0.0
 40
500.0
  1
塗りつぶし
  7
KANJI
 72
     1
 11
39584.831670027648
 21
5419.6279641725123
 31
0.0
  0
DIMENSION
  5
E93
  8
0
  2
*D41
 10
6374.0720016190171
 20
1663.887067986979
 30
0.0
 11
5124.0720016190171
 21
1876.387067986979
 31
0.0
 70
     0
  1
<>
 13
3874.0720016190171
 23
732.41766210896446
 33
0.0
 14
6374.0720016190171
 24
732.41766210896446
 34
0.0
1001
ACAD
1000
DSTYLE
1002
{
1070
     6
1000
DATUMBLANK
1070
   173
1070
     1
1070
     7
1000
DATUMBLANK
1070
    40
1040
100.0
1002
}
  0
TEXT
  5
E94
  8
0
 10
4007.405334952351
 20
2161.6845510315902
 30
0.0
 40
500.0
  1
データム
  7
KANJI
 72
     1
 11
5124.0720016190171
 21
2161.6845510315902
 31
0.0
  0
TEXT
  5
ED4
  8
0
 10
4624.0720016190171
 20
2702.1930384330772
 30
0.0
 40
500.0
  1
空白
  7
KANJI
 72
     1
 11
5124.0720016190171
 21
2702.1930384330772
 31
0.0
  0
TEXT
  5
F80
  8
0
 10
6507.405334952351
 20
2161.6845510315902
 30
0.0
 40
500.0
  1
データム
  7
KANJI
 72
     1
 11
7624.0720016190162
 21
2161.6845510315902
 31
0.0
  0
DIMENSION
  5
F81
  8
0
  2
*D43
 10
8874.0720016190171
 20
1663.887067986979
 30
0.0
 11
7624.0720016190162
 21
1876.387067986979
 31
0.0
 70
     0
  1
<>
 13
6374.0720016190171
 23
732.41766210896446
 33
0.0
 14
8874.0720016190171
 24
732.41766210896446
 34
0.0
1001
ACAD
1000
DSTYLE
1002
{
1070
     6
1000
DATUMFILLED
1070
   173
1070
     1
1070
     7
1000
DATUMFILLED
1070
    40
1040
100.0
1002
}
  0
TEXT
  5
FAD
  8
0
 10
6224.0720016190171
 20
2702.1930384330772
 30
0.0
 40
500.0
  1
塗りつぶし
  7
KANJI
 72
     1
 11
7624.0720016190162
 21
2702.1930384330772
 31
0.0
  0
DIMENSION
  5
114E
  8
0
  2
*D45
 10
11374.07200161901
 20
1663.887067986979
 30
0.0
 11
10124.07200161901
 21
1876.387067986979
 31
0.0
 70
     0
  1
<>
 13
8874.0720016190171
 23
732.41766210896446
 33
0.0
 14
11374.07200161901
 24
732.41766210896446
 34
0.0
1001
ACAD
1000
DSTYLE
1002
{
1070
     6
1000
INTEGRAL
1070
   173
1070
     1
1070
     7
1000
INTEGRAL
1070
    40
1040
100.0
1002
}
  0
TEXT
  5
114F
  8
0
 10
9590.7386682856832
 20
2161.6845510315902
 30
0.0
 40
500.0
  1
波形
  7
KANJI
 72
     1
 11
10124.07200161901
 21
2161.6845510315902
 31
0.0
  0
DIMENSION
  5
117C
  8
0
  2
*D47
 10
13874.07200161901
 20
1663.887067986979
 30
0.0
 11
12624.07200161901
 21
1876.387067986979
 31
0.0
 70
     0
  1
<>
 13
11374.07200161901
 23
732.41766210896446
 33
0.0
 14
13874.07200161901
 24
732.41766210896446
 34
0.0
1001
ACAD
1000
DSTYLE
1002
{
1070
     6
1000
NONE
1070
   173
1070
     1
1070
     7
1000
NONE
1070
    40
1040
100.0
1002
}
  0
TEXT
  5
117D
  8
0
 10
12124.07200161901
 20
2161.6845510315902
 30
0.0
 40
500.0
  1
なし
  7
KANJI
 72
     1
 11
12624.07200161901
 21
2161.6845510315902
 31
0.0
  0
DIMENSION
  5
13F4
  8
0
  2
*D49
 10
16108.826121400591
 20
1663.887067986979
 30
0.0
 11
16871.326121400591
 21
1663.887067986979
 31
0.0
 70
   128
  1
<>
 13
14608.826121400591
 23
732.41766210896446
 33
0.0
 14
16108.826121400591
 24
732.41766210896446
 34
0.0
1001
ACAD
1000
DSTYLE
1002
{
1070
    40
1040
100.0
1070
   173
1070
     1
1070
     6
1000
OPEN30
1070
     7
1000
OPEN30
1002
}
  0
DIMENSION
  5
147B
  8
0
  2
*D50
 10
19554.680964136489
 20
1663.887067986979
 30
0.0
 11
20467.180964136489
 21
1663.887067986979
 31
0.0
 70
   128
  1
<>
 13
19054.680964136489
 23
732.41766210896446
 33
0.0
 14
19554.680964136489
 24
732.41766210896446
 34
0.0
1001
ACAD
1000
DSTYLE
1002
{
1070
   279
1070
     0
1070
    40
1040
100.0
1070
   173
1070
     1
1070
     6
1000
OPEN30
1070
     7
1000
OPEN30
1002
}
  0
TEXT
  5
151F
  8
0
 10
14219.42234363432
 20
2161.6845510315902
 30
0.0
 40
500.0
  1
外向きの矢印
  7
KANJI
 72
     1
 11
15936.089010300981
 21
2161.6845510315902
 31
0.0
  0
TEXT
  5
152B
  8
0
 10
18038.395532791132
 20
2161.6845510315902
 30
0.0
 40
500.0
  1
内向きの矢印
  7
KANJI
 72
     1
 11
19771.72886612446
 21
2161.6845510315902
 31
0.0
  0
TEXT
  5
156C
  8
0
 10
22164.30081507835
 20
2161.6845510315902
 30
0.0
 40
500.0
  1
座標寸法
  7
KANJI
 72
     1
 11
23297.634148411678
 21
2161.6845510315902
 31
0.0
  0
DIMENSION
  5
1682
  8
0
  2
*D53
 10
38079.23269341683
 20
22516.996843459321
 30
0.0
 11
36161.205549448328
 21
20899.490081495082
 31
0.0
 70
     1
 13
33902.642865946531
 23
19622.518859064141
 33
0.0
 14
37438.176771879269
 24
23158.052764996879
 34
0.0
1001
ACAD
1000
DSTYLE
1002
{
1070
    40
1040
100.0
1002
}
  0
DIMENSION
  5
168F
  8
0
  2
*D54
 10
38005.667932426717
 20
23725.543925544331
 30
0.0
 11
37625.598037538948
 21
24406.134202436391
 31
0.0
 70
     1
 13
36377.51660009945
 23
24218.712936776701
 33
0.0
 14
37438.176771879269
 24
23158.052764996879
 34
0.0
1001
ACAD
1000
DSTYLE
1002
{
1070
    40
1040
100.0
1002
}
  0
DIMENSION
  5
16AE
  8
0
  2
*D55
 10
39061.617553885691
 20
26056.56410520013
 30
0.0
 11
36561.617553885691
 21
26269.06410520013
 31
0.0
 70
     1
 13
34061.617553885691
 23
26963.154083678131
 33
0.0
 14
39061.617553885691
 24
26963.154083678131
 34
0.0
1001
ACAD
1000
DSTYLE
1002
{
1070
    40
1040
100.0
1002
}
  0
DIMENSION
  5
16AF
  8
0
  2
*D56
 10
39864.171249658742
 20
26963.154083678131
 30
0.0
 11
39651.671249658728
 21
27713.154083678139
 31
0.0
 70
     1
 13
39061.617553885691
 23
28463.154083678131
 33
0.0
 14
39061.617553885691
 24
26963.154083678131
 34
0.0
1001
ACAD
1000
DSTYLE
1002
{
1070
    40
1040
100.0
1002
}
  0
TEXT
  5
1710
  8
1
 62
     0
 10
33826.091686095053
 20
19964.80324982827
 30
0.0
 40
500.0
  1
平行寸法
 50
45.0
  7
KANJI
  0
TEXT
  5
1711
  8
1
 62
     0
 10
33472.538295501778
 20
20318.356640421549
 30
0.0
 40
500.0
  1
四角形と長さ寸法
 50
45.0
  7
KANJI
  0
TEXT
  5
1712
  8
1
 62
     0
 10
33826.091686095053
 20
19964.80324982827
 30
0.0
 40
500.0
  1
平行寸法
 50
45.0
  7
KANJI
  0
TEXT
  5
1840
  8
1
 62
     0
 10
34249.519309308489
 20
27759.315555862569
 30
0.0
 40
500.0
  1
四角形と長さ寸法
  7
KANJI
  0
TEXT
  5
1841
  8
1
 62
     0
 10
34249.519309308489
 20
27759.315555862569
 30
0.0
 40
500.0
  1
四角形と長さ寸法
  7
KANJI
  0
TEXT
  5
1842
  8
1
 62
     0
 10
34249.519309308489
 20
27259.315555862569
 30
0.0
 40
500.0
  1
平行寸法
  7
KANJI
  0
TEXT
  5
1843
  8
1
 62
     0
 10
34249.519309308489
 20
27259.315555862569
 30
0.0
 40
500.0
  1
平行寸法
  7
KANJI
  0
TEXT
  5
18CB
  8
フリーズ画層
 10
29297.880478439241
 20
2369.5383377866228
 30
0.0
 40
500.0
  1
フリーズされた画層に書かれた文字
  7
KANJI
  0
TEXT
  5
18CC
  8
非表示画層
 10
29297.880478439241
 20
1869.5383377866231
 30
0.0
 40
500.0
  1
非表示画層に書かれた文字
  7
KANJI
  0
TEXT
  5
18CD
  8
非表示かつフリーズ画層
 10
29297.880478439241
 20
1369.5383377866231
 30
0.0
 40
500.0
  1
非表示かつフリーズされた画層に書かれた文字
  7
KANJI
  0
TEXT
  5
18CF
  8
ロックされた画層
 10
29297.880478439241
 20
869.53833778662374
 30
0.0
 40
500.0
  1
ロックされた画層に書かれた文字
  7
KANJI
  0
TEXT
  5
1ABE
  8
フリーズ画層
 10
18013.265046422741
 20
8351.5539229122223
 30
0.0
 40
500.0
  1
雲マーク
  7
KANJI
  0
TEXT
  5
1ABF
  8
1
 10
15934.060659498469
 20
10232.278067765081
 30
0.0
 40
500.0
  1
(ポリライン)
  7
KANJI
 72
     1
 11
17684.060659498471
 21
10232.278067765081
 31
0.0
  0
POLYLINE
  5
1AC1
  8
1
 66
     1
 10
0.0
 20
0.0
 30
0.0
 70
     1
  0
VERTEX
  5
2156
  8
1
 10
17355.64886932063
 20
9506.9274958169844
 30
0.0
 42
0.52056705
  0
VERTEX
  5
2157
  8
1
 10
16857.009239960342
 20
9506.9274958169844
 30
0.0
 42
0.52056705
  0
VERTEX
  5
2158
  8
1
 10
16477.092990699311
 20
9328.9989639147261
 30
0.0
 42
0.52056705
  0
VERTEX
  5
2159
  8
1
 10
16239.645558808579
 20
8996.8658179876802
 30
0.0
 42
0.52056705
  0
VERTEX
  5
215A
  8
1
 10
16061.559816967459
 20
8617.2850797853025
 30
0.0
 42
0.52056705
  0
VERTEX
  5
215B
  8
1
 10
16120.921730914501
 20
8202.1185865066072
 30
0.0
 42
0.52056705
  0
VERTEX
  5
215C
  8
1
 10
16346.49700391324
 20
7869.9854405795331
 30
0.0
 42
0.52056705
  0
VERTEX
  5
215D
  8
1
 10
16643.306349751008
 20
7514.1283767750438
 30
0.0
 42
0.52056705
  0
VERTEX
  5
215E
  8
1
 10
17023.222375114648
 20
7348.0618038115208
 30
0.0
 42
0.52056705
  0
VERTEX
  5
215F
  8
1
 10
17498.117462793511
 20
7265.0285781996499
 30
0.0
 42
0.52056705
  0
VERTEX
  5
2160
  8
1
 10
17913.650636525359
 20
7312.4761704749262
 30
0.0
 42
0.52056705
  0
VERTEX
  5
2161
  8
1
 10
18293.566661888992
 20
7478.5427434384774
 30
0.0
 42
0.52056705
  0
VERTEX
  5
2162
  8
1
 10
18720.97221841025
 20
7644.6093164019976
 30
0.0
 42
0.52056705
  0
VERTEX
  5
2163
  8
1
 10
19041.526553724219
 20
7905.5710739161304
 30
0.0
 42
0.52056705
  0
VERTEX
  5
2164
  8
1
 10
19207.73968887853
 20
8273.2899749195494
 30
0.0
 42
0.52056705
  0
VERTEX
  5
2165
  8
1
 10
19326.463516772601
 20
8664.732672060607
 30
0.0
 42
0.52056705
  0
VERTEX
  5
2166
  8
1
 10
19362.08066514082
 20
9079.8991653393314
 30
0.0
 42
0.52056705
  0
VERTEX
  5
2167
  8
1
 10
19112.760850460669
 20
9412.0323112663755
 30
0.0
 42
0.52056705
  0
VERTEX
  5
2168
  8
1
 10
18768.461749567879
 20
9625.5464765052038
 30
0.0
 42
0.52056705
  0
VERTEX
  5
2169
  8
1
 10
18341.056193046621
 20
9756.0274161321577
 30
0.0
 42
0.52056705
  0
VERTEX
  5
216A
  8
1
 10
17913.650636525359
 20
9815.3368456063927
 30
0.0
 42
0.52056705
  0
SEQEND
  5
216B
  8
1
  0
TEXT
  5
1AE3
  8
0
 10
20103.524695249042
 20
10232.278067765081
 30
0.0
 40
500.0
  1
リージョン
  7
KANJI
  0
INSERT
  5
1AE7
  8
1
  2
*U65
 10
0.0
 20
0.0
 30
0.0
  0
TEXT
  5
1B72
  8
1
 10
16584.060659498471
 20
10732.278067765081
 30
0.0
 40
500.0
  1
雲マーク
  7
KANJI
 72
     1
 11
17684.060659498471
 21
10732.278067765081
 31
0.0
  0
DIMENSION
  5
1DFD
  8
1
  2
*D57
 10
0.0
 20
0.0
 30
0.0
 11
24827.837537397962
 21
2292.399842974457
 31
0.0
 70
    70
 13
24000.0
 23
703.36400868305645
 33
0.0
 14
24978.462537397962
 24
1666.7748429744529
 34
0.0
  0
DIMENSION
  5
1E0E
  8
1
  2
*D58
 10
26446.29486998995
 20
1653.6664119135239
 30
0.0
 11
27433.79486998995
 21
1653.6664119135239
 31
0.0
 70
   128
  1
<<>>
 13
25446.29486998995
 23
732.41766210896446
 33
0.0
 14
26446.29486998995
 24
732.41766210896446
 34
0.0
1001
ACAD
1000
DSTYLE
1002
{
1070
    40
1040
100.0
1002
}
  0
LINE
  5
1E26
  8
1
 10
25446.29486998995
 20
732.41766210896446
 30
0.0
 11
26446.29486998995
 21
732.41766210896446
 31
0.0
  0
TEXT
  5
1F2A
  8
0
 10
25832.998858923918
 20
2161.6845510315902
 30
0.0
 40
500.0
  1
上書き
  7
KANJI
 72
     1
 11
26632.998858923918
 21
2161.6845510315902
 31
0.0
  0
TEXT
  5
1F2B
  8
0
 10
25516.33219225725
 20
2661.6845510315911
 30
0.0
 40
500.0
  1
寸法値の
  7
KANJI
 72
     1
 11
26632.998858923918
 21
2661.6845510315911
 31
0.0
  0
DIMENSION
  5
1F54
  8
1
  2
*D59
 10
0.0
 20
0.0
 30
0.0
 11
22870.327402746399
 21
1811.026028986983
 31
0.0
 70
     6
 13
21761.907893255539
 23
700.0
 33
0.0
 14
22519.702402746399
 24
1660.4010289869841
 34
0.0
  0
ENDSEC
  0
EOF
