  0
SECTION
  2
HEADER
  9
$ACADVER
  1
AC1012
  9
$DWGCODEPAGE
  3
dos932
  9
$INSBASE
 10
0.0
 20
0.0
 30
0.0
  9
$EXTMIN
 10
-1.773829838086385
 20
-1.103180821155547
 30
-0.0000000000112498
  9
$EXTMAX
 10
42052.11217275027
 20
29762.89687612323
 30
0.0000000000002956
  9
$LIMMIN
 10
0.0
 20
0.0
  9
$LIMMAX
 10
420.0
 20
297.0
  9
$ORTHOMODE
 70
     1
  9
$REGENMODE
 70
     1
  9
$FILLMODE
 70
     1
  9
$QTEXTMODE
 70
     0
  9
$MIRRTEXT
 70
     1
  9
$DRAGMODE
 70
     2
  9
$LTSCALE
 40
100.0
  9
$OSMODE
 70
  3071
  9
$ATTMODE
 70
     1
  9
$TEXTSIZE
 40
500.0
  9
$TRACEWID
 40
1.0
  9
$TEXTSTYLE
  7
KANJI
  9
$CLAYER
  8
1
  9
$CELTYPE
  6
BYLAYER
  9
$CECOLOR
 62
   256
  9
$CELTSCALE
 40
1.0
  9
$DELOBJ
 70
     1
  9
$DISPSILH
 70
     0
  9
$DIMSCALE
 40
1.0
  9
$DIMASZ
 40
2.5
  9
$DIMEXO
 40
0.625
  9
$DIMDLI
 40
3.75
  9
$DIMRND
 40
0.0
  9
$DIMDLE
 40
0.0
  9
$DIMEXE
 40
1.25
  9
$DIMTP
 40
0.0
  9
$DIMTM
 40
0.0
  9
$DIMTXT
 40
2.5
  9
$DIMCEN
 40
2.5
  9
$DIMTSZ
 40
0.0
  9
$DIMTOL
 70
     0
  9
$DIMLIM
 70
     0
  9
$DIMTIH
 70
     0
  9
$DIMTOH
 70
     0
  9
$DIMSE1
 70
     0
  9
$DIMSE2
 70
     0
  9
$DIMTAD
 70
     1
  9
$DIMZIN
 70
     8
  9
$DIMBLK
  1

  9
$DIMASO
 70
     1
  9
$DIMSHO
 70
     1
  9
$DIMPOST
  1

  9
$DIMAPOST
  1

  9
$DIMALT
 70
     0
  9
$DIMALTD
 70
     3
  9
$DIMALTF
 40
0.03937007874016
  9
$DIMLFAC
 40
1.0
  9
$DIMTOFL
 70
     1
  9
$DIMTVP
 40
0.0
  9
$DIMTIX
 70
     0
  9
$DIMSOXD
 70
     0
  9
$DIMSAH
 70
     0
  9
$DIMBLK1
  1

  9
$DIMBLK2
  1

  9
$DIMSTYLE
  2
ISO-25
  9
$DIMCLRD
 70
     0
  9
$DIMCLRE
 70
     0
  9
$DIMCLRT
 70
     0
  9
$DIMTFAC
 40
1.0
  9
$DIMGAP
 40
0.625
  9
$DIMJUST
 70
     0
  9
$DIMSD1
 70
     0
  9
$DIMSD2
 70
     0
  9
$DIMTOLJ
 70
     0
  9
$DIMTZIN
 70
     8
  9
$DIMALTZ
 70
     0
  9
$DIMALTTZ
 70
     0
  9
$DIMFIT
 70
     3
  9
$DIMUPT
 70
     0
  9
$DIMUNIT
 70
     2
  9
$DIMDEC
 70
     2
  9
$DIMTDEC
 70
     2
  9
$DIMALTU
 70
     2
  9
$DIMALTTD
 70
     3
  9
$DIMTXSTY
  7
STANDARD
  9
$DIMAUNIT
 70
     0
  9
$LUNITS
 70
     2
  9
$LUPREC
 70
     4
  9
$SKETCHINC
 40
1.0
  9
$FILLETRAD
 40
0.0
  9
$AUNITS
 70
     0
  9
$AUPREC
 70
     0
  9
$MENU
  1
.
  9
$ELEVATION
 40
0.0
  9
$PELEVATION
 40
0.0
  9
$THICKNESS
 40
0.0
  9
$LIMCHECK
 70
     0
  9
$BLIPMODE
 70
     0
  9
$CHAMFERA
 40
10.0
  9
$CHAMFERB
 40
10.0
  9
$CHAMFERC
 40
20.0
  9
$CHAMFERD
 40
0.0
  9
$SKPOLY
 70
     0
  9
$TDCREATE
 40
2451983.493486933
  9
$TDUPDATE
 40
2451983.695180775
  9
$TDINDWG
 40
0.1337622569
  9
$TDUSRTIMER
 40
0.1337621412
  9
$USRTIMER
 70
     1
  9
$ANGBASE
 50
0.0
  9
$ANGDIR
 70
     0
  9
$PDMODE
 70
     3
  9
$PDSIZE
 40
300.0
  9
$PLINEWID
 40
0.0
  9
$COORDS
 70
     1
  9
$SPLFRAME
 70
     0
  9
$SPLINETYPE
 70
     6
  9
$SPLINESEGS
 70
     8
  9
$ATTDIA
 70
     0
  9
$ATTREQ
 70
     1
  9
$HANDLING
 70
-16383
  9
$HANDSEED
  5
2109
  9
$SURFTAB1
 70
     6
  9
$SURFTAB2
 70
     6
  9
$SURFTYPE
 70
     6
  9
$SURFU
 70
     6
  9
$SURFV
 70
     6
  9
$UCSNAME
  2

  9
$UCSORG
 10
0.0
 20
0.0
 30
0.0
  9
$UCSXDIR
 10
1.0
 20
0.0
 30
0.0
  9
$UCSYDIR
 10
0.0
 20
1.0
 30
0.0
  9
$PUCSNAME
  2

  9
$PUCSORG
 10
0.0
 20
0.0
 30
0.0
  9
$PUCSXDIR
 10
1.0
 20
0.0
 30
0.0
  9
$PUCSYDIR
 10
0.0
 20
1.0
 30
0.0
  9
$USERI1
 70
     0
  9
$USERI2
 70
     0
  9
$USERI3
 70
     0
  9
$USERI4
 70
     0
  9
$USERI5
 70
     0
  9
$USERR1
 40
0.0
  9
$USERR2
 40
0.0
  9
$USERR3
 40
0.0
  9
$USERR4
 40
0.0
  9
$USERR5
 40
0.0
  9
$WORLDVIEW
 70
     1
  9
$SHADEDGE
 70
     3
  9
$SHADEDIF
 70
    70
  9
$TILEMODE
 70
     1
  9
$MAXACTVP
 70
    48
  9
$PINSBASE
 10
0.0
 20
0.0
 30
0.0
  9
$PLIMCHECK
 70
     0
  9
$PEXTMIN
 10
1.000000000000000E+20
 20
1.000000000000000E+20
 30
1.000000000000000E+20
  9
$PEXTMAX
 10
-1.000000000000000E+20
 20
-1.000000000000000E+20
 30
-1.000000000000000E+20
  9
$PLIMMIN
 10
0.0
 20
0.0
  9
$PLIMMAX
 10
420.0
 20
297.0
  9
$UNITMODE
 70
     0
  9
$VISRETAIN
 70
     1
  9
$PLINEGEN
 70
     0
  9
$PSLTSCALE
 70
     0
  9
$TREEDEPTH
 70
  3020
  9
$PICKSTYLE
 70
     3
  9
$CMLSTYLE
  2
STANDARD
  9
$CMLJUST
 70
     0
  9
$CMLSCALE
 40
20.0
  9
$SAVEIMAGES
 70
     1
  0
ENDSEC
  0
SECTION
  2
CLASSES
  0
CLASS
  1
ACDBDICTIONARYWDFLT
  2
AcDbDictionaryWithDefault
  3
AutoCAD 2000
 90
    32768
280
     0
281
     0
  0
CLASS
  1
ACDBPLACEHOLDER
  2
AcDbPlaceHolder
  3
AutoCAD 2000
 90
    32768
280
     0
281
     0
  0
CLASS
  1
LAYOUT
  2
AcDbLayout
  3
AutoCAD 2000
 90
    32768
280
     0
281
     0
  0
CLASS
  1
DICTIONARYVAR
  2
AcDbDictionaryVar
  3
AutoCAD 2000
 90
    32768
280
     0
281
     0
  0
CLASS
  1
LONG_TRANSACTION
  2
AcDbLongTransaction
  3
AutoCAD 2000
 90
    32768
280
     0
281
     0
  0
CLASS
  1
LWPOLYLINE
  2
AcDbPolyline
  3
AutoCAD 2000
 90
    32768
280
     0
281
     1
  0
CLASS
  1
HATCH
  2
AcDbHatch
  3
AutoCAD 2000
 90
    32768
280
     0
281
     1
  0
CLASS
  1
XRECORD
  2
AcDbXrecord
  3
AutoCAD 2000
 90
    32768
280
     0
281
     0
  0
CLASS
  1
LONG_TRANSACTION
  2
AcDbLongTransaction
  3
AutoCAD 2000
 90
    32768
280
     0
281
     0
  0
CLASS
  1
LWPOLYLINE
  2
AcDbPolyline
  3
AutoCAD 2000
 90
    32768
280
     0
281
     1
  0
CLASS
  1
HATCH
  2
AcDbHatch
  3
AutoCAD 2000
 90
    32768
280
     0
281
     1
  0
CLASS
  1
XRECORD
  2
AcDbXrecord
  3
AutoCAD 2000
 90
    32768
280
     0
281
     0
  0
CLASS
  1
LONG_TRANSACTION
  2
AcDbLongTransaction
  3
AutoCAD 2000
 90
    32768
280
     0
281
     0
  0
CLASS
  1
LWPOLYLINE
  2
AcDbPolyline
  3
AutoCAD 2000
 90
    32768
280
     0
281
     1
  0
CLASS
  1
HATCH
  2
AcDbHatch
  3
AutoCAD 2000
 90
    32768
280
     0
281
     1
  0
CLASS
  1
XRECORD
  2
AcDbXrecord
  3
AutoCAD 2000
 90
    32768
280
     0
281
     0
  0
ENDSEC
  0
SECTION
  2
TABLES
  0
TABLE
  2
VPORT
  5
8
330
0
100
AcDbSymbolTable
 70
     7
  0
VPORT
  5
20BA
330
8
100
AcDbSymbolTableRecord
100
AcDbViewportTableRecord
  2
*ACTIVE
 70
     0
 10
0.0
 20
0.0
 11
1.0
 21
1.0
 12
21025.16917145609
 22
14880.89684765104
 13
0.0
 23
0.0
 14
10.0
 24
10.0
 15
10.0
 25
10.0
 16
0.0
 26
0.0
 36
1.0
 17
0.0
 27
0.0
 37
0.0
 40
30109.42365528417
 41
1.839147286821705
 42
50.0
 43
0.0
 44
0.0
 50
0.0
 51
0.0
 71
     0
 72
   100
 73
     1
 74
     3
 75
     0
 76
     0
 77
     0
 78
     0
  0
ENDTAB
  0
TABLE
  2
LTYPE
  5
5
330
0
100
AcDbSymbolTable
 70
     5
  0
LTYPE
  5
14
330
5
100
AcDbSymbolTableRecord
100
AcDbLinetypeTableRecord
  2
BYBLOCK
 70
     0
  3

 72
    65
 73
     0
 40
0.0
  0
LTYPE
  5
15
330
5
100
AcDbSymbolTableRecord
100
AcDbLinetypeTableRecord
  2
BYLAYER
 70
     0
  3

 72
    65
 73
     0
 40
0.0
  0
LTYPE
  5
16
330
5
100
AcDbSymbolTableRecord
100
AcDbLinetypeTableRecord
  2
CONTINUOUS
 70
     0
  3
Solid line
 72
    65
 73
     0
 40
0.0
  0
LTYPE
  5
32
330
5
100
AcDbSymbolTableRecord
100
AcDbLinetypeTableRecord
  2
HIDDEN
 70
     0
  3
------------------------
 72
    65
 73
     2
 40
12.6
 49
8.4
 74
     0
 49
-4.2
 74
     0
  0
LTYPE
  5
33
330
5
100
AcDbSymbolTableRecord
100
AcDbLinetypeTableRecord
  2
DOT
 70
     0
  3
････････････････････････
 72
    65
 73
     2
 40
8.0
 49
6.0
 74
     0
 49
-2.0
 74
     0
  0
LTYPE
  5
34
330
5
100
AcDbSymbolTableRecord
100
AcDbLinetypeTableRecord
  2
DASHDOT
 70
     0
  3
--･--･--･--･--･--･--･--
 72
    65
 73
     4
 40
50.5
 49
30.0
 74
     0
 49
-9.0
 74
     0
 49
2.5
 74
     0
 49
-9.0
 74
     0
  0
LTYPE
  5
35
330
5
100
AcDbSymbolTableRecord
100
AcDbLinetypeTableRecord
  2
DIVIDE
 70
     0
  3
--･･--･･--･･--･･--･･--
 72
    65
 73
     6
 40
58.0
 49
30.0
 74
     0
 49
-9.0
 74
     0
 49
2.5
 74
     0
 49
-5.0
 74
     0
 49
2.5
 74
     0
 49
-9.0
 74
     0
  0
ENDTAB
  0
TABLE
  2
LAYER
  5
2
330
0
100
AcDbSymbolTable
 70
     8
  0
LAYER
  5
10
330
2
100
AcDbSymbolTableRecord
100
AcDbLayerTableRecord
  2
0
 70
     0
 62
     7
  6
CONTINUOUS
  0
LAYER
  5
36
330
2
100
AcDbSymbolTableRecord
100
AcDbLayerTableRecord
  2
1
 70
     0
 62
     7
  6
CONTINUOUS
  0
LAYER
  5
29D
330
2
100
AcDbSymbolTableRecord
100
AcDbLayerTableRecord
  2
DEFPOINTS
 70
     0
 62
     7
  6
CONTINUOUS
  0
LAYER
  5
E63
330
2
100
AcDbSymbolTableRecord
100
AcDbLayerTableRecord
  2
NORMAL
 70
     0
 62
     7
  6
CONTINUOUS
  0
LAYER
  5
18C8
330
2
100
AcDbSymbolTableRecord
100
AcDbLayerTableRecord
  2
非表示画層
 70
     0
 62
    -7
  6
CONTINUOUS
  0
LAYER
  5
18C9
330
2
100
AcDbSymbolTableRecord
100
AcDbLayerTableRecord
  2
フリーズ画層
 70
     1
 62
     7
  6
CONTINUOUS
  0
LAYER
  5
18CA
330
2
100
AcDbSymbolTableRecord
100
AcDbLayerTableRecord
  2
非表示かつフリーズ画層
 70
     1
 62
    -7
  6
CONTINUOUS
  0
LAYER
  5
18CE
330
2
100
AcDbSymbolTableRecord
100
AcDbLayerTableRecord
  2
ロックされた画層
 70
     4
 62
     7
  6
CONTINUOUS
  0
ENDTAB
  0
TABLE
  2
STYLE
  5
3
330
0
100
AcDbSymbolTable
 70
     5
  0
STYLE
  5
11
330
3
100
AcDbSymbolTableRecord
100
AcDbTextStyleTableRecord
  2
STANDARD
 70
     0
 40
300.0
 41
1.0
 50
0.0
 71
     0
 42
300.0
  3
txt.shx
  4

  0
STYLE
  5
37
330
3
100
AcDbSymbolTableRecord
100
AcDbTextStyleTableRecord
  2
KANJI
 70
     0
 40
500.0
 41
1.0
 50
0.0
 71
     0
 42
500.0
  3
TXT.shx
  4
BIGFONT.shx
  0
STYLE
  5
38
330
3
100
AcDbSymbolTableRecord
100
AcDbTextStyleTableRecord
  2
KANJI2
 70
     0
 40
500.0
 41
1.0
 50
0.0
 71
     0
 42
500.0
  3
MS Gothic.ttf
  4

1001
ACAD
1000
MS Gothic
1071
    32817
  0
STYLE
  5
446
330
3
100
AcDbSymbolTableRecord
100
AcDbTextStyleTableRecord
  2
KANJI4
 70
     0
 40
500.0
 41
1.0
 50
0.0
 71
     0
 42
500.0
  3
@MS Gothic.ttf
  4

1001
ACAD
1000
@MS Gothic
1071
    32817
  0
STYLE
  5
67C
330
3
100
AcDbSymbolTableRecord
100
AcDbTextStyleTableRecord
  2
KANJI3
 70
     4
 40
500.0
 41
1.0
 50
0.0
 71
     0
 42
500.0
  3
TXT.shx
  4
BIGFONT.shx
  0
ENDTAB
  0
TABLE
  2
VIEW
  5
6
330
0
100
AcDbSymbolTable
 70
     0
  0
ENDTAB
  0
TABLE
  2
UCS
  5
7
330
0
100
AcDbSymbolTable
 70
     0
  0
ENDTAB
  0
TABLE
  2
APPID
  5
9
330
0
100
AcDbSymbolTable
 70
     2
  0
APPID
  5
12
330
9
100
AcDbSymbolTableRecord
100
AcDbRegAppTableRecord
  2
ACAD
 70
     0
  0
APPID
  5
133A
330
9
100
AcDbSymbolTableRecord
100
AcDbRegAppTableRecord
  2
CONTENTBLOCKICON
 70
     0
  0
ENDTAB
  0
TABLE
  2
DIMSTYLE
  5
A
330
0
100
AcDbSymbolTable
 70
     2
  0
DIMSTYLE
105
27
102
{ACAD_REACTORS
330
2C5
330
2C7
330
329
330
373
330
37C
330
755
330
801
330
83D
330
866
330
89D
330
8CA
330
8F7
330
92F
330
97D
330
9C3
330
AAF
330
AE8
330
B1D
330
B55
330
B83
330
E65
330
E93
330
F81
330
114E
330
117C
330
13F4
330
147B
330
2B7
330
2AA
330
1682
330
168F
330
16AE
330
16AF
330
1DFD
330
1E0E
330
1F54
102
}
330
A
100
AcDbSymbolTableRecord
100
AcDbDimStyleTableRecord
  2
ISO-25
 70
     0
  3

  4

  5

  6

  7

 40
1.0
 41
2.5
 42
0.625
 43
3.75
 44
1.25
 45
0.0
 46
0.0
 47
0.0
 48
0.0
140
2.5
141
2.5
142
0.0
143
0.03937007874016
144
1.0
145
0.0
146
1.0
147
0.625
 71
     0
 72
     0
 73
     0
 74
     0
 75
     0
 76
     0
 77
     1
 78
     8
170
     0
171
     3
172
     1
173
     0
174
     0
175
     0
176
     0
177
     0
178
     0
270
     2
271
     2
272
     2
273
     2
274
     3
340
11
275
     0
280
     0
281
     0
282
     0
283
     0
284
     8
285
     0
286
     0
287
     3
288
     0
  0
DIMSTYLE
105
39
330
A
100
AcDbSymbolTableRecord
100
AcDbDimStyleTableRecord
  2
STANDARD
 70
     0
  3

  4

  5

  6

  7

 40
1.0
 41
0.18
 42
0.0625
 43
0.38
 44
0.18
 45
0.0
 46
0.0
 47
0.0
 48
0.0
140
0.18
141
0.09
142
0.0
143
25.4
144
1.0
145
0.0
146
1.0
147
0.09
 71
     0
 72
     0
 73
     1
 74
     1
 75
     0
 76
     0
 77
     0
 78
     0
170
     0
171
     2
172
     0
173
     0
174
     0
175
     0
176
     0
177
     0
178
     0
270
     2
271
     4
272
     4
273
     2
274
     2
340
11
275
     0
280
     0
281
     0
282
     0
283
     1
284
     0
285
     0
286
     0
287
     3
288
     0
  0
ENDTAB
  0
TABLE
  2
BLOCK_RECORD
  5
1
330
0
100
AcDbSymbolTable
 70
    61
  0
BLOCK_RECORD
  5
1F
102
{ACAD_XDICTIONARY
360
12CA
102
}
330
1
100
AcDbSymbolTableRecord
100
AcDbBlockTableRecord
  2
*MODEL_SPACE
  0
BLOCK_RECORD
  5
1B
102
{ACAD_XDICTIONARY
360
12CC
102
}
330
1
100
AcDbSymbolTableRecord
100
AcDbBlockTableRecord
  2
*PAPER_SPACE
  0
BLOCK_RECORD
  5
2B
330
1
100
AcDbSymbolTableRecord
100
AcDbBlockTableRecord
  2
*U1
  0
BLOCK_RECORD
  5
2AB
330
1
100
AcDbSymbolTableRecord
100
AcDbBlockTableRecord
  2
*D2
  0
BLOCK_RECORD
  5
2B8
330
1
100
AcDbSymbolTableRecord
100
AcDbBlockTableRecord
  2
*D3
  0
BLOCK_RECORD
  5
2C8
330
1
100
AcDbSymbolTableRecord
100
AcDbBlockTableRecord
  2
*D4
  0
BLOCK_RECORD
  5
2D4
330
1
100
AcDbSymbolTableRecord
100
AcDbBlockTableRecord
  2
*D5
  0
BLOCK_RECORD
  5
32A
330
1
100
AcDbSymbolTableRecord
100
AcDbBlockTableRecord
  2
*D6
  0
BLOCK_RECORD
  5
374
330
1
100
AcDbSymbolTableRecord
100
AcDbBlockTableRecord
  2
*D7
  0
BLOCK_RECORD
  5
37D
330
1
100
AcDbSymbolTableRecord
100
AcDbBlockTableRecord
  2
*D8
  0
BLOCK_RECORD
  5
744
330
1
100
AcDbSymbolTableRecord
100
AcDbBlockTableRecord
  2
NONAME
1001
ACAD
1000
DesignCenter Data
1002
{
1070
     1
1070
     4
1002
}
1001
CONTENTBLOCKICON
1071
        0
1004
2800000020000000200000000100080000000000000400000000000000000000000000000000000000000000000080000080000000808000800000008000800080800000C0C0C000C0DCC000F0CAA6000020400000206000002080000020A0000020C0000020E00000400000004020000040400000406000004080000040A0
1004
000040C0000040E00000600000006020000060400000606000006080000060A0000060C0000060E00000800000008020000080400000806000008080000080A0000080C0000080E00000A0000000A0200000A0400000A0600000A0800000A0A00000A0C00000A0E00000C0000000C0200000C0400000C0600000C0800000C0
1004
A00000C0C00000C0E00000E0000000E0200000E0400000E0600000E0800000E0A00000E0C00000E0E00040000000400020004000400040006000400080004000A0004000C0004000E00040200000402020004020400040206000402080004020A0004020C0004020E000404000004040200040404000404060004040800040
1004
40A0004040C0004040E00040600000406020004060400040606000406080004060A0004060C0004060E00040800000408020004080400040806000408080004080A0004080C0004080E00040A0000040A0200040A0400040A0600040A0800040A0A00040A0C00040A0E00040C0000040C0200040C0400040C0600040C08000
1004
40C0A00040C0C00040C0E00040E0000040E0200040E0400040E0600040E0800040E0A00040E0C00040E0E00080000000800020008000400080006000800080008000A0008000C0008000E00080200000802020008020400080206000802080008020A0008020C0008020E00080400000804020008040400080406000804080
1004
008040A0008040C0008040E00080600000806020008060400080606000806080008060A0008060C0008060E00080800000808020008080400080806000808080008080A0008080C0008080E00080A0000080A0200080A0400080A0600080A0800080A0A00080A0C00080A0E00080C0000080C0200080C0400080C0600080C0
1004
800080C0A00080C0C00080C0E00080E0000080E0200080E0400080E0600080E0800080E0A00080E0C00080E0E000C0000000C0002000C0004000C0006000C0008000C000A000C000C000C000E000C0200000C0202000C0204000C0206000C0208000C020A000C020C000C020E000C0400000C0402000C0404000C0406000C0
1004
408000C040A000C040C000C040E000C0600000C0602000C0604000C0606000C0608000C060A000C060C000C060E000C0800000C0802000C0804000C0806000C0808000C080A000C080C000C080E000C0A00000C0A02000C0A04000C0A06000C0A08000C0A0A000C0A0C000C0A0E000C0C00000C0C02000C0C04000C0C06000
1004
C0C08000C0C0A000F0FBFF00A4A0A000808080000000FF0000FF000000FFFF00FF000000FF00FF00FFFF0000FFFFFF000000000000000000000000000000000000000000000000000000000000000000000000000000000000000000000000FF000000000000000000000000000000000000000000000000000000000000FF
1004
00FF0000000000000000000000000000000000000000000000000000000000FF00FF00000000000000000000000000000000000000000000000000000000FF000000FF000000000000000000000000000000000000000000000000000000FF000000FF0000000000000000000000000000000000000000000000000000FF00
1004
00000000FF000000000000000000000000000000FFFFFFFFFFFFFFFFFFFFFFFFFFFFFFFFFFFFFFFFFFFFFFFFFFFFFFFF0000000000FF00000000000000FF00000000000000FF0000000000000000FF000000000000FF000000000000FF000000000000000000FF00000000000000FF00000000000000FF0000000000FF0000
1004
00000000000000FF000000000000FF0000000000000000FF00000000FF0000000000000000000000FF0000000000FF000000000000000000FF000000FF000000000000000000000000FF000000FF00000000000000000000FF0000FF00000000000000000000000000FF0000FF000000000000000000000000FF00FF000000
1004
0000000000000000000000FF00FF00000000000000000000000000FF00000000000000000000000000000000FF0000000000000000000000000000FF00000000000000000000000000000000FF00000000000000000000000000FF00FF0000000000000000000000000000FF00FF0000000000000000000000FF0000FF0000
1004
0000000000000000000000FF0000FF0000000000000000000000FF000000FF000000000000000000000000FF000000FF000000000000000000FF00000000FF0000000000000000000000FF0000000000FF0000000000000000FF0000000000FF000000000000000000FF000000000000FF00000000000000FF000000000000
1004
FF000000000000000000FF00000000000000FF000000000000FF00000000000000FF00000000000000FF0000000000000000FF0000000000FFFFFFFFFFFFFFFFFFFFFFFFFFFFFFFFFFFFFFFFFFFFFFFFFFFFFFFF0000000000000000000000000000FF0000000000FF00000000000000000000000000000000000000000000
1004
00000000FF000000FF000000000000000000000000000000000000000000000000000000FF000000FF00000000000000000000000000000000000000000000000000000000FF00FF0000000000000000000000000000000000000000000000000000000000FF00FF0000000000000000000000000000000000000000000000
1004
00000000000000FF000000000000000000000000000000000000000000000000000000000000000000000000000000000000000000000000
  0
BLOCK_RECORD
  5
756
330
1
100
AcDbSymbolTableRecord
100
AcDbBlockTableRecord
  2
*D10
  0
BLOCK_RECORD
  5
7CC
330
1
100
AcDbSymbolTableRecord
100
AcDbBlockTableRecord
  2
_CLOSEDBLANK
  0
BLOCK_RECORD
  5
802
330
1
100
AcDbSymbolTableRecord
100
AcDbBlockTableRecord
  2
*D12
  0
BLOCK_RECORD
  5
820
330
1
100
AcDbSymbolTableRecord
100
AcDbBlockTableRecord
  2
_CLOSED
  0
BLOCK_RECORD
  5
83E
330
1
100
AcDbSymbolTableRecord
100
AcDbBlockTableRecord
  2
*D14
  0
BLOCK_RECORD
  5
867
330
1
100
AcDbSymbolTableRecord
100
AcDbBlockTableRecord
  2
*D15
  0
BLOCK_RECORD
  5
87C
330
1
100
AcDbSymbolTableRecord
100
AcDbBlockTableRecord
  2
_DOT
  0
BLOCK_RECORD
  5
89E
330
1
100
AcDbSymbolTableRecord
100
AcDbBlockTableRecord
  2
*D17
  0
BLOCK_RECORD
  5
8B3
330
1
100
AcDbSymbolTableRecord
100
AcDbBlockTableRecord
  2
_ARCHTICK
  0
BLOCK_RECORD
  5
8CB
330
1
100
AcDbSymbolTableRecord
100
AcDbBlockTableRecord
  2
*D19
  0
BLOCK_RECORD
  5
8E0
330
1
100
AcDbSymbolTableRecord
100
AcDbBlockTableRecord
  2
_OBLIQUE
  0
BLOCK_RECORD
  5
8F9
330
1
100
AcDbSymbolTableRecord
100
AcDbBlockTableRecord
  2
*D21
  0
BLOCK_RECORD
  5
90E
330
1
100
AcDbSymbolTableRecord
100
AcDbBlockTableRecord
  2
_OPEN
  0
BLOCK_RECORD
  5
931
330
1
100
AcDbSymbolTableRecord
100
AcDbBlockTableRecord
  2
*D23
  0
BLOCK_RECORD
  5
946
330
1
100
AcDbSymbolTableRecord
100
AcDbBlockTableRecord
  2
_ORIGIN
  0
BLOCK_RECORD
  5
97F
330
1
100
AcDbSymbolTableRecord
100
AcDbBlockTableRecord
  2
*D25
  0
BLOCK_RECORD
  5
994
330
1
100
AcDbSymbolTableRecord
100
AcDbBlockTableRecord
  2
_ORIGIN2
  0
BLOCK_RECORD
  5
9C5
330
1
100
AcDbSymbolTableRecord
100
AcDbBlockTableRecord
  2
*D27
  0
BLOCK_RECORD
  5
9DA
330
1
100
AcDbSymbolTableRecord
100
AcDbBlockTableRecord
  2
_OPEN90
  0
BLOCK_RECORD
  5
AB1
330
1
100
AcDbSymbolTableRecord
100
AcDbBlockTableRecord
  2
*D29
  0
BLOCK_RECORD
  5
AC6
330
1
100
AcDbSymbolTableRecord
100
AcDbBlockTableRecord
  2
_OPEN30
  0
BLOCK_RECORD
  5
AE9
330
1
100
AcDbSymbolTableRecord
100
AcDbBlockTableRecord
  2
*D31
  0
BLOCK_RECORD
  5
AFE
330
1
100
AcDbSymbolTableRecord
100
AcDbBlockTableRecord
  2
_DOTSMALL
  0
BLOCK_RECORD
  5
B1F
330
1
100
AcDbSymbolTableRecord
100
AcDbBlockTableRecord
  2
*D33
  0
BLOCK_RECORD
  5
B34
330
1
100
AcDbSymbolTableRecord
100
AcDbBlockTableRecord
  2
_DOTBLANK
  0
BLOCK_RECORD
  5
B57
330
1
100
AcDbSymbolTableRecord
100
AcDbBlockTableRecord
  2
*D35
  0
BLOCK_RECORD
  5
B6C
330
1
100
AcDbSymbolTableRecord
100
AcDbBlockTableRecord
  2
_SMALL
  0
BLOCK_RECORD
  5
B84
330
1
100
AcDbSymbolTableRecord
100
AcDbBlockTableRecord
  2
*D37
  0
BLOCK_RECORD
  5
B99
330
1
100
AcDbSymbolTableRecord
100
AcDbBlockTableRecord
  2
_BOXBLANK
  0
BLOCK_RECORD
  5
E66
330
1
100
AcDbSymbolTableRecord
100
AcDbBlockTableRecord
  2
*D39
  0
BLOCK_RECORD
  5
E7B
330
1
100
AcDbSymbolTableRecord
100
AcDbBlockTableRecord
  2
_BOXFILLED
  0
BLOCK_RECORD
  5
E95
330
1
100
AcDbSymbolTableRecord
100
AcDbBlockTableRecord
  2
*D41
  0
BLOCK_RECORD
  5
EAA
330
1
100
AcDbSymbolTableRecord
100
AcDbBlockTableRecord
  2
_DATUMBLANK
  0
BLOCK_RECORD
  5
F82
330
1
100
AcDbSymbolTableRecord
100
AcDbBlockTableRecord
  2
*D43
  0
BLOCK_RECORD
  5
F97
330
1
100
AcDbSymbolTableRecord
100
AcDbBlockTableRecord
  2
_DATUMFILLED
  0
BLOCK_RECORD
  5
1150
330
1
100
AcDbSymbolTableRecord
100
AcDbBlockTableRecord
  2
*D45
  0
BLOCK_RECORD
  5
1165
330
1
100
AcDbSymbolTableRecord
100
AcDbBlockTableRecord
  2
_INTEGRAL
  0
BLOCK_RECORD
  5
117E
330
1
100
AcDbSymbolTableRecord
100
AcDbBlockTableRecord
  2
*D47
  0
BLOCK_RECORD
  5
1193
330
1
100
AcDbSymbolTableRecord
100
AcDbBlockTableRecord
  2
_NONE
  0
BLOCK_RECORD
  5
13F5
330
1
100
AcDbSymbolTableRecord
100
AcDbBlockTableRecord
  2
*D49
  0
BLOCK_RECORD
  5
147C
330
1
100
AcDbSymbolTableRecord
100
AcDbBlockTableRecord
  2
*D50
  0
BLOCK_RECORD
  5
156E
330
1
100
AcDbSymbolTableRecord
100
AcDbBlockTableRecord
  2
*D51
  0
BLOCK_RECORD
  5
15A5
330
1
100
AcDbSymbolTableRecord
100
AcDbBlockTableRecord
  2
*D52
  0
BLOCK_RECORD
  5
1683
330
1
100
AcDbSymbolTableRecord
100
AcDbBlockTableRecord
  2
*D53
  0
BLOCK_RECORD
  5
1690
330
1
100
AcDbSymbolTableRecord
100
AcDbBlockTableRecord
  2
*D54
  0
BLOCK_RECORD
  5
16B0
330
1
100
AcDbSymbolTableRecord
100
AcDbBlockTableRecord
  2
*D55
  0
BLOCK_RECORD
  5
16BC
330
1
100
AcDbSymbolTableRecord
100
AcDbBlockTableRecord
  2
*D56
  0
BLOCK_RECORD
  5
1DFE
330
1
100
AcDbSymbolTableRecord
100
AcDbBlockTableRecord
  2
*D57
  0
BLOCK_RECORD
  5
1E0F
330
1
100
AcDbSymbolTableRecord
100
AcDbBlockTableRecord
  2
*D58
  0
BLOCK_RECORD
  5
1F55
330
1
100
AcDbSymbolTableRecord
100
AcDbBlockTableRecord
  2
*D59
  0
BLOCK_RECORD
  5
20DC
330
1
100
AcDbSymbolTableRecord
100
AcDbBlockTableRecord
  2
*X60
  0
ENDTAB
  0
ENDSEC
  0
SECTION
  2
BLOCKS
  0
BLOCK
  5
20
330
1F
100
AcDbEntity
  8
0
100
AcDbBlockBegin
  2
*MODEL_SPACE
 70
     0
 10
0.0
 20
0.0
 30
0.0
  3
*MODEL_SPACE
  1

  0
ENDBLK
  5
21
330
1F
100
AcDbEntity
  8
0
100
AcDbBlockEnd
  0
BLOCK
  5
1C
330
1B
100
AcDbEntity
 67
     1
  8
0
100
AcDbBlockBegin
  2
*PAPER_SPACE
 70
     0
 10
0.0
 20
0.0
 30
0.0
  3
*PAPER_SPACE
  1

  0
ENDBLK
  5
1D
330
1B
100
AcDbEntity
 67
     1
  8
0
100
AcDbBlockEnd
  0
BLOCK
  5
30
330
2B
100
AcDbEntity
  8
1
  6
CONTINUOUS
 62
     7
100
AcDbBlockBegin
  2
*U1
 70
     1
 10
0.0
 20
0.0
 30
0.0
  3
*U1
  1

  0
LINE
  5
2C
330
2B
100
AcDbEntity
  8
1
  6
CONTINUOUS
 62
     7
100
AcDbLine
 10
0.0
 20
29700.0
 30
0.0
 11
0.0
 21
0.0
 31
0.0
  0
LINE
  5
2D
330
2B
100
AcDbEntity
  8
1
  6
CONTINUOUS
 62
     7
100
AcDbLine
 10
0.0
 20
0.0
 30
0.0
 11
42000.0
 21
0.0
 31
0.0
  0
LINE
  5
2E
330
2B
100
AcDbEntity
  8
1
  6
CONTINUOUS
 62
     7
100
AcDbLine
 10
42000.0
 20
0.0
 30
0.0
 11
42000.0
 21
29700.0
 31
0.0
  0
LINE
  5
2F
330
2B
100
AcDbEntity
  8
1
  6
CONTINUOUS
 62
     7
100
AcDbLine
 10
42000.0
 20
29700.0
 30
0.0
 11
0.0
 21
29700.0
 31
0.0
  0
ENDBLK
  5
31
330
2B
100
AcDbEntity
  8
0
100
AcDbBlockEnd
  0
BLOCK
  5
2B5
330
2AB
100
AcDbEntity
  8
0
100
AcDbBlockBegin
  2
*D2
 70
     1
 10
0.0
 20
0.0
 30
0.0
  3
*D2
  1

  0
LINE
  5
171A
330
2AB
100
AcDbEntity
  8
0
 62
     0
100
AcDbLine
 10
32797.78852034247
 20
20727.37320466804
 30
0.0
 11
32470.00709536237
 21
21055.15462964686
 31
0.0
  0
LINE
  5
171B
330
2AB
100
AcDbEntity
  8
0
 62
     0
100
AcDbLine
 10
36333.3224262752
 20
24262.90711060077
 30
0.0
 11
36005.54100128825
 21
24590.68853558645
 31
0.0
  0
LINE
  5
171C
330
2AB
100
AcDbEntity
  8
0
 62
     0
100
AcDbLine
 10
32735.17213830715
 20
21143.54297729569
 30
0.0
 11
35917.15265364045
 21
24325.52349264132
 31
0.0
  0
SOLID
  5
171D
330
2AB
100
AcDbEntity
  8
0
 62
     0
100
AcDbTrace
 10
32705.70935575765
 20
21173.00575984508
 30
0.0
 11
32764.63492085665
 21
21114.08019474631
 31
0.0
 12
32558.39544301086
 22
20966.76628199871
 32
0.0
 13
32558.39544301086
 23
20966.76628199871
 33
0.0
  0
SOLID
  5
171E
330
2AB
100
AcDbEntity
  8
0
 62
     0
100
AcDbTrace
 10
35887.68987109095
 20
24354.9862751907
 30
0.0
 11
35946.61543618994
 21
24296.06071009194
 31
0.0
 12
36093.92934893674
 22
24502.3001879383
 32
0.0
 13
36093.92934893674
 23
24502.3001879383
 33
0.0
  0
MTEXT
  5
171F
330
2AB
100
AcDbEntity
  8
0
 62
     0
100
AcDbMText
 10
34175.90220497137
 20
22884.79342597035
 30
0.0
 40
300.0
 41
0.0
 71
     5
 72
     1
  1
5000
 11
0.707106781185177
 21
0.7071067811879182
 31
0.0
1001
ACAD
1000
MTEXTBEGIN
1070
    73
1070
     1
1070
    44
1040
1.0
1070
    74
1070
     0
1000
MTEXTEND
1000
MTEXTBEGIN
1070
    73
1070
     1
1070
    44
1040
1.0
1070
    74
1070
     0
1000
MTEXTEND
  0
POINT
  5
1720
330
2AB
100
AcDbEntity
  8
DEFPOINTS
 62
     0
100
AcDbPoint
 10
32841.98269416671
 20
20683.17903084396
 30
0.0
  0
POINT
  5
1721
330
2AB
100
AcDbEntity
  8
DEFPOINTS
 62
     0
100
AcDbPoint
 10
36377.51660009944
 20
24218.7129367767
 30
0.0
  0
POINT
  5
1722
330
2AB
100
AcDbEntity
  8
DEFPOINTS
 62
     0
100
AcDbPoint
 10
36093.92934893674
 20
24502.3001879383
 30
0.0
  0
ENDBLK
  5
2B6
330
2AB
100
AcDbEntity
  8
0
100
AcDbBlockEnd
  0
BLOCK
  5
2C2
330
2B8
100
AcDbEntity
  8
0
100
AcDbBlockBegin
  2
*D3
 70
     1
 10
0.0
 20
0.0
 30
0.0
  3
*D3
  1

  0
LINE
  5
1723
330
2B8
100
AcDbEntity
  8
0
 62
     0
100
AcDbLine
 10
32797.78852034247
 20
20638.98485701989
 30
0.0
 11
32123.26971235923
 21
19964.46604903928
 31
0.0
  0
LINE
  5
1724
330
2B8
100
AcDbEntity
  8
0
 62
     0
100
AcDbLine
 10
33858.4486921223
 20
19578.32468524007
 30
0.0
 11
33183.92988413701
 21
18903.8058772574
 31
0.0
  0
LINE
  5
1725
330
2B8
100
AcDbEntity
  8
0
 62
     0
100
AcDbLine
 10
32388.43475530402
 20
19876.07770139045
 30
0.0
 11
33095.5415364892
 21
19168.97092020253
 31
0.0
  0
SOLID
  5
1726
330
2B8
100
AcDbEntity
  8
0
 62
     0
100
AcDbTrace
 10
32417.89753785351
 20
19905.54048393983
 30
0.0
 11
32358.97197275452
 21
19846.61491884107
 31
0.0
 12
32211.65806000772
 22
20052.85439668743
 32
0.0
 13
32211.65806000772
 23
20052.85439668743
 33
0.0
  0
SOLID
  5
1727
330
2B8
100
AcDbEntity
  8
0
 62
     0
100
AcDbTrace
 10
33125.0043190387
 20
19198.43370275191
 30
0.0
 11
33066.0787539397
 21
19139.50813765314
 31
0.0
 12
33272.3182317855
 22
18992.19422490555
 32
0.0
 13
33272.3182317855
 23
18992.19422490555
 33
0.0
  0
MTEXT
  5
1728
330
2B8
100
AcDbEntity
  8
0
 62
     0
100
AcDbMText
 10
32892.24833689904
 20
19672.78450179834
 30
0.0
 40
300.0
 41
0.0
 71
     5
 72
     1
  1
1500
 11
0.7071067811851766
 21
-0.7071067811879185
 31
0.0
1001
ACAD
1000
MTEXTBEGIN
1070
    73
1070
     1
1070
    44
1040
1.0
1070
    74
1070
     0
1000
MTEXTEND
1000
MTEXTBEGIN
1070
    73
1070
     1
1070
    44
1040
1.0
1070
    74
1070
     0
1000
MTEXTEND
  0
POINT
  5
1729
330
2B8
100
AcDbEntity
  8
DEFPOINTS
 62
     0
100
AcDbPoint
 10
32841.9826941667
 20
20683.17903084397
 30
0.0
  0
POINT
  5
172A
330
2B8
100
AcDbEntity
  8
DEFPOINTS
 62
     0
100
AcDbPoint
 10
33902.64286594654
 20
19622.51885906414
 30
0.0
  0
POINT
  5
172B
330
2B8
100
AcDbEntity
  8
DEFPOINTS
 62
     0
100
AcDbPoint
 10
33272.3182317855
 20
18992.19422490555
 30
0.0
  0
ENDBLK
  5
2C3
330
2B8
100
AcDbEntity
  8
0
100
AcDbBlockEnd
  0
BLOCK
  5
2D2
330
2C8
100
AcDbEntity
  8
0
100
AcDbBlockBegin
  2
*D4
 70
     1
 10
0.0
 20
0.0
 30
0.0
  3
*D4
  1

  0
LINE
  5
172C
330
2C8
100
AcDbEntity
  8
0
 62
     0
100
AcDbLine
 10
34061.61755388569
 20
28525.65408367813
 30
0.0
 11
34061.61755388569
 21
28989.20702038776
 31
0.0
  0
LINE
  5
172D
330
2C8
100
AcDbEntity
  8
0
 62
     0
100
AcDbLine
 10
39061.61755388569
 20
28525.65408367813
 30
0.0
 11
39061.61755388569
 21
28989.20702038776
 31
0.0
  0
LINE
  5
172E
330
2C8
100
AcDbEntity
  8
0
 62
     0
100
AcDbLine
 10
34311.61755388569
 20
28864.20702038776
 30
0.0
 11
38811.61755388569
 21
28864.20702038776
 31
0.0
  0
SOLID
  5
172F
330
2C8
100
AcDbEntity
  8
0
 62
     0
100
AcDbTrace
 10
34311.61755388569
 20
28905.87368705443
 30
0.0
 11
34311.61755388569
 21
28822.54035372109
 31
0.0
 12
34061.61755388569
 22
28864.20702038776
 32
0.0
 13
34061.61755388569
 23
28864.20702038776
 33
0.0
  0
SOLID
  5
1730
330
2C8
100
AcDbEntity
  8
0
 62
     0
100
AcDbTrace
 10
38811.61755388569
 20
28905.87368705443
 30
0.0
 11
38811.61755388569
 21
28822.54035372109
 31
0.0
 12
39061.61755388569
 22
28864.20702038776
 32
0.0
 13
39061.61755388569
 23
28864.20702038776
 33
0.0
  0
MTEXT
  5
1731
330
2C8
100
AcDbEntity
  8
0
 62
     0
100
AcDbMText
 10
36561.61755388569
 20
29076.70702038776
 30
0.0
 40
300.0
 41
0.0
 71
     5
 72
     1
  1
5000
1001
ACAD
1000
MTEXTBEGIN
1070
    73
1070
     1
1070
    44
1040
1.0
1070
    74
1070
     0
1000
MTEXTEND
1000
MTEXTBEGIN
1070
    73
1070
     1
1070
    44
1040
1.0
1070
    74
1070
     0
1000
MTEXTEND
  0
POINT
  5
1732
330
2C8
100
AcDbEntity
  8
DEFPOINTS
 62
     0
100
AcDbPoint
 10
34061.61755388569
 20
28463.15408367813
 30
0.0
  0
POINT
  5
1733
330
2C8
100
AcDbEntity
  8
DEFPOINTS
 62
     0
100
AcDbPoint
 10
39061.61755388569
 20
28463.15408367813
 30
0.0
  0
POINT
  5
1734
330
2C8
100
AcDbEntity
  8
DEFPOINTS
 62
     0
100
AcDbPoint
 10
39061.61755388569
 20
28864.20702038776
 30
0.0
  0
ENDBLK
  5
2D3
330
2C8
100
AcDbEntity
  8
0
100
AcDbBlockEnd
  0
BLOCK
  5
2DE
330
2D4
100
AcDbEntity
  8
0
100
AcDbBlockBegin
  2
*D5
 70
     1
 10
0.0
 20
0.0
 30
0.0
  3
*D5
  1

  0
LINE
  5
1735
330
2D4
100
AcDbEntity
  8
0
 62
     0
100
AcDbLine
 10
33999.11755388569
 20
28463.15408367813
 30
0.0
 11
33045.20390755901
 21
28463.15408367813
 31
0.0
  0
LINE
  5
1736
330
2D4
100
AcDbEntity
  8
0
 62
     0
100
AcDbLine
 10
33999.11755388569
 20
26963.15408367813
 30
0.0
 11
33045.20390755901
 21
26963.15408367813
 31
0.0
  0
LINE
  5
1737
330
2D4
100
AcDbEntity
  8
0
 62
     0
100
AcDbLine
 10
33170.20390755901
 20
28213.15408367813
 30
0.0
 11
33170.20390755901
 21
27213.15408367813
 31
0.0
  0
SOLID
  5
1738
330
2D4
100
AcDbEntity
  8
0
 62
     0
100
AcDbTrace
 10
33128.53724089235
 20
28213.15408367813
 30
0.0
 11
33211.87057422568
 21
28213.15408367813
 31
0.0
 12
33170.20390755901
 22
28463.15408367813
 32
0.0
 13
33170.20390755901
 23
28463.15408367813
 33
0.0
  0
SOLID
  5
1739
330
2D4
100
AcDbEntity
  8
0
 62
     0
100
AcDbTrace
 10
33128.53724089235
 20
27213.15408367813
 30
0.0
 11
33211.87057422568
 21
27213.15408367813
 31
0.0
 12
33170.20390755901
 22
26963.15408367813
 32
0.0
 13
33170.20390755901
 23
26963.15408367813
 33
0.0
  0
MTEXT
  5
173A
330
2D4
100
AcDbEntity
  8
0
 62
     0
100
AcDbMText
 10
32957.70390755901
 20
27713.15408367814
 30
0.0
 40
300.0
 41
0.0
 71
     5
 72
     1
  1
1500
 11
0.0000000000000001
 21
1.0
 31
0.0
1001
ACAD
1000
MTEXTBEGIN
1070
    73
1070
     1
1070
    44
1040
1.0
1070
    74
1070
     0
1000
MTEXTEND
1000
MTEXTBEGIN
1070
    73
1070
     1
1070
    44
1040
1.0
1070
    74
1070
     0
1000
MTEXTEND
  0
POINT
  5
173B
330
2D4
100
AcDbEntity
  8
DEFPOINTS
 62
     0
100
AcDbPoint
 10
34061.61755388569
 20
28463.15408367813
 30
0.0
  0
POINT
  5
173C
330
2D4
100
AcDbEntity
  8
DEFPOINTS
 62
     0
100
AcDbPoint
 10
34061.61755388569
 20
26963.15408367813
 30
0.0
  0
POINT
  5
173D
330
2D4
100
AcDbEntity
  8
DEFPOINTS
 62
     0
100
AcDbPoint
 10
33170.20390755901
 20
26963.15408367813
 30
0.0
  0
ENDBLK
  5
2DF
330
2D4
100
AcDbEntity
  8
0
100
AcDbBlockEnd
  0
BLOCK
  5
334
330
32A
100
AcDbEntity
  8
0
100
AcDbBlockBegin
  2
*D6
 70
     1
 10
0.0
 20
0.0
 30
0.0
  3
*D6
  1

  0
ARC
  5
20C8
330
32A
100
AcDbEntity
  8
0
 62
     0
100
AcDbCircle
 10
33902.64286594653
 20
19622.51885906414
 30
0.0
 40
3643.198465986115
100
AcDbArc
 50
3.932466728467707
 51
41.06753327153231
  0
SOLID
  5
20C9
330
32A
100
AcDbEntity
  8
0
 62
     0
100
AcDbTrace
 10
37578.90583846656
 20
19873.80126895147
 30
0.0
 11
37495.62157004181
 21
19870.94205972531
 31
0.0
 12
37545.84133193265
 22
19622.51885906415
 32
0.0
 13
37545.84133193265
 23
19622.51885906415
 33
0.0
  0
SOLID
  5
20CA
330
32A
100
AcDbEntity
  8
0
 62
     0
100
AcDbTrace
 10
36618.92420206274
 20
21987.47673559719
 30
0.0
 11
36679.83683926468
 21
22044.34584033384
 31
0.0
 12
36478.77320645374
 22
22198.64919957136
 32
0.0
 13
36478.77320645374
 23
22198.64919957136
 33
0.0
  0
MTEXT
  5
20CB
330
32A
100
AcDbEntity
  8
0
 62
     0
100
AcDbMText
 10
37464.84376220628
 20
21098.03078219252
 30
0.0
 40
300.0
 41
0.0
 71
     5
 72
     1
  1
45°
 11
0.3826834323650894
 21
-0.9238795325112869
 31
0.0
  0
POINT
  5
20CC
330
32A
100
AcDbEntity
  8
DEFPOINTS
 62
     0
100
AcDbPoint
 10
37421.70235453924
 20
20565.44800714964
 30
0.0
  0
POINT
  5
20CD
330
32A
100
AcDbEntity
  8
DEFPOINTS
 62
     0
100
AcDbPoint
 10
37438.17677187928
 20
23158.05276499689
 30
0.0
  0
POINT
  5
20CE
330
32A
100
AcDbEntity
  8
DEFPOINTS
 62
     0
100
AcDbPoint
 10
33902.64286594653
 20
19622.51885906414
 30
0.0
  0
POINT
  5
20CF
330
32A
100
AcDbEntity
  8
DEFPOINTS
 62
     0
100
AcDbPoint
 10
37726.65216029227
 20
19622.51885906415
 30
0.0
  0
POINT
  5
20D0
330
32A
100
AcDbEntity
  8
DEFPOINTS
 62
     0
100
AcDbPoint
 10
33902.64286594653
 20
19622.51885906414
 30
0.0
  0
ENDBLK
  5
335
330
32A
100
AcDbEntity
  8
0
100
AcDbBlockEnd
  0
BLOCK
  5
37A
330
374
100
AcDbEntity
  8
0
100
AcDbBlockBegin
  2
*D7
 70
     1
 10
0.0
 20
0.0
 30
0.0
  3
*D7
  1

  0
LINE
  5
1747
330
374
100
AcDbEntity
  8
0
 62
     0
100
AcDbLine
 10
33971.7196360845
 20
18916.48750671567
 30
0.0
 11
33971.7196360845
 21
17291.48750671567
 31
0.0
  0
LINE
  5
1748
330
374
100
AcDbEntity
  8
0
 62
     0
100
AcDbLine
 10
33971.7196360845
 20
12791.48750671567
 30
0.0
 11
33971.7196360845
 21
12541.48750671567
 31
0.0
  0
MTEXT
  5
1749
330
374
100
AcDbEntity
  8
0
 62
     0
100
AcDbMText
 10
33759.21963608449
 20
18228.98750671567
 30
0.0
 40
300.0
 41
0.0
 71
     5
 72
     1
  1
\U+22054000
 11
0.0000000000000001
 21
1.0
 31
0.0
1001
ACAD
1000
MTEXTBEGIN
1070
    73
1070
     1
1070
    44
1040
1.0
1070
    74
1070
     0
1000
MTEXTEND
1000
MTEXTBEGIN
1070
    73
1070
     1
1070
    44
1040
1.0
1070
    74
1070
     0
1000
MTEXTEND
  0
LINE
  5
174A
330
374
100
AcDbEntity
  8
0
 62
     0
100
AcDbLine
 10
33971.7196360845
 20
13041.48750671567
 30
0.0
 11
33971.7196360845
 21
17041.48750671567
 31
0.0
  0
SOLID
  5
174B
330
374
100
AcDbEntity
  8
0
 62
     0
100
AcDbTrace
 10
33930.05296941784
 20
12791.48750671567
 30
0.0
 11
34013.38630275116
 21
12791.48750671567
 31
0.0
 12
33971.7196360845
 22
13041.48750671567
 32
0.0
 13
33971.7196360845
 23
13041.48750671567
 33
0.0
  0
SOLID
  5
174C
330
374
100
AcDbEntity
  8
0
 62
     0
100
AcDbTrace
 10
33930.05296941784
 20
17291.48750671567
 30
0.0
 11
34013.38630275116
 21
17291.48750671567
 31
0.0
 12
33971.7196360845
 22
17041.48750671567
 32
0.0
 13
33971.7196360845
 23
17041.48750671567
 33
0.0
  0
POINT
  5
174D
330
374
100
AcDbEntity
  8
DEFPOINTS
 62
     0
100
AcDbPoint
 10
33971.7196360845
 20
17041.48750671567
 30
0.0
  0
POINT
  5
174E
330
374
100
AcDbEntity
  8
DEFPOINTS
 62
     0
100
AcDbPoint
 10
33971.7196360845
 20
13041.48750671567
 30
0.0
  0
ENDBLK
  5
37B
330
374
100
AcDbEntity
  8
0
100
AcDbBlockEnd
  0
BLOCK
  5
384
330
37D
100
AcDbEntity
  8
0
100
AcDbBlockBegin
  2
*D8
 70
     1
 10
0.0
 20
0.0
 30
0.0
  3
*D8
  1

  0
LINE
  5
174F
330
37D
100
AcDbEntity
  8
0
 62
     0
100
AcDbLine
 10
37235.06246344516
 20
17131.03736041948
 30
0.0
 11
35866.56385842295
 21
16254.77451854369
 31
0.0
  0
MTEXT
  5
1750
330
37D
100
AcDbEntity
  8
0
 62
     0
100
AcDbMText
 10
36541.49406661355
 20
16939.26828335956
 30
0.0
 40
300.0
 41
0.0
 71
     5
 72
     1
  1
R2000
 11
0.8421529877059789
 21
0.539238671923568
 31
0.0
1001
ACAD
1000
MTEXTBEGIN
1070
    73
1070
     1
1070
    44
1040
1.0
1070
    74
1070
     0
1000
MTEXTEND
1000
MTEXTBEGIN
1070
    73
1070
     1
1070
    44
1040
1.0
1070
    74
1070
     0
1000
MTEXTEND
  0
LINE
  5
1751
330
37D
100
AcDbEntity
  8
0
 62
     0
100
AcDbLine
 10
33971.71963608451
 20
15041.48750671567
 30
0.0
 11
35656.02561149646
 21
16119.9648505628
 31
0.0
  0
SOLID
  5
1752
330
37D
100
AcDbEntity
  8
0
 62
     0
100
AcDbTrace
 10
35844.09558042614
 20
16289.86422636477
 30
0.0
 11
35889.03213641976
 21
16219.6848107226
 31
0.0
 12
35656.02561149646
 22
16119.9648505628
 32
0.0
 13
35656.02561149646
 23
16119.9648505628
 33
0.0
  0
POINT
  5
1753
330
37D
100
AcDbEntity
  8
DEFPOINTS
 62
     0
100
AcDbPoint
 10
35656.02561149646
 20
16119.9648505628
 30
0.0
  0
POINT
  5
1754
330
37D
100
AcDbEntity
  8
DEFPOINTS
 62
     0
100
AcDbPoint
 10
33971.71963608451
 20
15041.48750671567
 30
0.0
  0
ENDBLK
  5
385
330
37D
100
AcDbEntity
  8
0
100
AcDbBlockEnd
  0
BLOCK
  5
745
330
744
100
AcDbEntity
  8
0
100
AcDbBlockBegin
  2
NONAME
 70
     0
 10
0.0
 20
0.0
 30
0.0
  3
NONAME
  1

  0
LINE
  5
747
330
744
100
AcDbEntity
  8
0
100
AcDbLine
 10
24339.43845972023
 20
5012.492533892546
 30
0.0
 11
21839.43845972023
 21
9342.619552814738
 31
0.0
  0
LINE
  5
748
330
744
100
AcDbEntity
  8
0
100
AcDbLine
 10
24339.43845972023
 20
5012.492533892546
 30
0.0
 11
19339.43845972023
 21
5012.492533892547
 31
0.0
  0
LINE
  5
749
330
744
100
AcDbEntity
  8
0
100
AcDbLine
 10
19339.43845972023
 20
8260.087798084191
 30
0.0
 11
24339.43845972023
 21
8260.087798084191
 31
0.0
  0
LINE
  5
74A
330
744
100
AcDbEntity
  8
0
100
AcDbLine
 10
19339.43845972023
 20
8260.087798084191
 30
0.0
 11
21839.43845972023
 21
3929.960779162
 31
0.0
  0
LINE
  5
74B
330
744
100
AcDbEntity
  8
0
100
AcDbLine
 10
24339.43845972023
 20
8260.087798084191
 30
0.0
 11
21839.43845972023
 21
3929.960779162
 31
0.0
  0
LINE
  5
74C
330
744
100
AcDbEntity
  8
0
100
AcDbLine
 10
19339.43845972023
 20
5012.492533892547
 30
0.0
 11
21839.43845972023
 21
9342.619552814738
 31
0.0
  0
ENDBLK
  5
746
330
744
100
AcDbEntity
  8
0
100
AcDbBlockEnd
  0
BLOCK
  5
760
330
756
100
AcDbEntity
  8
0
100
AcDbBlockBegin
  2
*D10
 70
     1
 10
0.0
 20
0.0
 30
0.0
  3
*D10
  1

  0
LINE
  5
1755
330
756
100
AcDbEntity
  8
0
 62
     0
100
AcDbLine
 10
834.8316700276482
 20
3454.385493772555
 30
0.0
 11
834.8316700276482
 21
4448.35489965057
 31
0.0
  0
LINE
  5
1756
330
756
100
AcDbEntity
  8
0
 62
     0
100
AcDbLine
 10
3334.831670027648
 20
3454.385493772555
 30
0.0
 11
3334.831670027648
 21
4448.35489965057
 31
0.0
  0
LINE
  5
1757
330
756
100
AcDbEntity
  8
0
 62
     0
100
AcDbLine
 10
1084.831670027648
 20
4323.35489965057
 30
0.0
 11
3084.831670027648
 21
4323.35489965057
 31
0.0
  0
SOLID
  5
1758
330
756
100
AcDbEntity
  8
0
 62
     0
100
AcDbTrace
 10
1084.831670027648
 20
4365.021566317238
 30
0.0
 11
1084.831670027648
 21
4281.688232983904
 31
0.0
 12
834.8316700276482
 22
4323.35489965057
 32
0.0
 13
834.8316700276482
 23
4323.35489965057
 33
0.0
  0
SOLID
  5
1759
330
756
100
AcDbEntity
  8
0
 62
     0
100
AcDbTrace
 10
3084.831670027648
 20
4365.021566317238
 30
0.0
 11
3084.831670027648
 21
4281.688232983904
 31
0.0
 12
3334.831670027648
 22
4323.35489965057
 32
0.0
 13
3334.831670027648
 23
4323.35489965057
 33
0.0
  0
MTEXT
  5
175A
330
756
100
AcDbEntity
  8
0
 62
     0
100
AcDbMText
 10
2084.831670027648
 20
4535.85489965057
 30
0.0
 40
300.0
 41
0.0
 71
     5
 72
     1
  1
2500
1001
ACAD
1000
MTEXTBEGIN
1070
    73
1070
     1
1070
    44
1040
1.0
1070
    74
1070
     0
1000
MTEXTEND
1000
MTEXTBEGIN
1070
    73
1070
     1
1070
    44
1040
1.0
1070
    74
1070
     0
1000
MTEXTEND
  0
POINT
  5
175B
330
756
100
AcDbEntity
  8
DEFPOINTS
 62
     0
100
AcDbPoint
 10
834.8316700276482
 20
3391.885493772555
 30
0.0
  0
POINT
  5
175C
330
756
100
AcDbEntity
  8
DEFPOINTS
 62
     0
100
AcDbPoint
 10
3334.831670027648
 20
3391.885493772555
 30
0.0
  0
POINT
  5
175D
330
756
100
AcDbEntity
  8
DEFPOINTS
 62
     0
100
AcDbPoint
 10
3334.831670027648
 20
4323.35489965057
 30
0.0
  0
ENDBLK
  5
761
330
756
100
AcDbEntity
  8
0
100
AcDbBlockEnd
  0
BLOCK
  5
7D0
330
7CC
100
AcDbEntity
  8
0
100
AcDbBlockBegin
  2
_CLOSEDBLANK
 70
     0
 10
0.0
 20
0.0
 30
0.0
  3
_CLOSEDBLANK
  1

  0
LINE
  5
7CD
330
7CC
100
AcDbEntity
  8
0
  6
BYBLOCK
 62
     0
100
AcDbLine
 10
-1.0
 20
0.1666666666666666
 30
0.0
 11
0.0
 21
0.0
 31
0.0
  0
LINE
  5
7CE
330
7CC
100
AcDbEntity
  8
0
  6
BYBLOCK
 62
     0
100
AcDbLine
 10
0.0
 20
0.0
 30
0.0
 11
-1.0
 21
-0.1666666666666666
 31
0.0
  0
LINE
  5
7CF
330
7CC
100
AcDbEntity
  8
0
  6
BYBLOCK
 62
     0
100
AcDbLine
 10
-1.0
 20
0.1666666666666666
 30
0.0
 11
-1.0
 21
-0.1666666666666666
 31
0.0
  0
ENDBLK
  5
7D1
330
7CC
100
AcDbEntity
  8
0
100
AcDbBlockEnd
  0
BLOCK
  5
80C
330
802
100
AcDbEntity
  8
0
100
AcDbBlockBegin
  2
*D12
 70
     1
 10
0.0
 20
0.0
 30
0.0
  3
*D12
  1

  0
LINE
  5
175E
330
802
100
AcDbEntity
  8
0
 62
     0
100
AcDbLine
 10
3334.831670027648
 20
3454.385493772555
 30
0.0
 11
3334.831670027648
 21
4448.35489965057
 31
0.0
  0
LINE
  5
175F
330
802
100
AcDbEntity
  8
0
 62
     0
100
AcDbLine
 10
5834.831670027648
 20
3454.385493772555
 30
0.0
 11
5834.831670027648
 21
4448.35489965057
 31
0.0
  0
LINE
  5
1760
330
802
100
AcDbEntity
  8
0
 62
     0
100
AcDbLine
 10
3584.831670027648
 20
4323.35489965057
 30
0.0
 11
5584.831670027648
 21
4323.35489965057
 31
0.0
  0
INSERT
  5
1761
330
802
100
AcDbEntity
  8
0
 62
     0
100
AcDbBlockReference
  2
_CLOSEDBLANK
 10
3334.831670027648
 20
4323.35489965057
 30
0.0
 41
250.0
 42
250.0
 43
250.0
 50
180.0
  0
INSERT
  5
1762
330
802
100
AcDbEntity
  8
0
 62
     0
100
AcDbBlockReference
  2
_CLOSEDBLANK
 10
5834.831670027648
 20
4323.35489965057
 30
0.0
 41
250.0
 42
250.0
 43
250.0
  0
MTEXT
  5
1763
330
802
100
AcDbEntity
  8
0
 62
     0
100
AcDbMText
 10
4584.831670027648
 20
4535.85489965057
 30
0.0
 40
300.0
 41
0.0
 71
     5
 72
     1
  1
2500
1001
ACAD
1000
MTEXTBEGIN
1070
    73
1070
     1
1070
    44
1040
1.0
1070
    74
1070
     0
1000
MTEXTEND
1000
MTEXTBEGIN
1070
    73
1070
     1
1070
    44
1040
1.0
1070
    74
1070
     0
1000
MTEXTEND
  0
POINT
  5
1764
330
802
100
AcDbEntity
  8
DEFPOINTS
 62
     0
100
AcDbPoint
 10
3334.831670027648
 20
3391.885493772555
 30
0.0
  0
POINT
  5
1765
330
802
100
AcDbEntity
  8
DEFPOINTS
 62
     0
100
AcDbPoint
 10
5834.831670027648
 20
3391.885493772555
 30
0.0
  0
POINT
  5
1766
330
802
100
AcDbEntity
  8
DEFPOINTS
 62
     0
100
AcDbPoint
 10
5834.831670027648
 20
4323.35489965057
 30
0.0
  0
ENDBLK
  5
80D
330
802
100
AcDbEntity
  8
0
100
AcDbBlockEnd
  0
BLOCK
  5
825
330
820
100
AcDbEntity
  8
0
100
AcDbBlockBegin
  2
_CLOSED
 70
     0
 10
0.0
 20
0.0
 30
0.0
  3
_CLOSED
  1

  0
LINE
  5
821
330
820
100
AcDbEntity
  8
0
  6
BYBLOCK
 62
     0
100
AcDbLine
 10
-1.0
 20
0.1666666666666666
 30
0.0
 11
0.0
 21
0.0
 31
0.0
  0
LINE
  5
822
330
820
100
AcDbEntity
  8
0
  6
BYBLOCK
 62
     0
100
AcDbLine
 10
0.0
 20
0.0
 30
0.0
 11
-1.0
 21
-0.1666666666666666
 31
0.0
  0
LINE
  5
823
330
820
100
AcDbEntity
  8
0
  6
BYBLOCK
 62
     0
100
AcDbLine
 10
-1.0
 20
0.1666666666666666
 30
0.0
 11
-1.0
 21
-0.1666666666666666
 31
0.0
  0
LINE
  5
824
330
820
100
AcDbEntity
  8
0
  6
BYBLOCK
 62
     0
100
AcDbLine
 10
0.0
 20
0.0
 30
0.0
 11
-1.0
 21
0.0
 31
0.0
  0
ENDBLK
  5
826
330
820
100
AcDbEntity
  8
0
100
AcDbBlockEnd
  0
BLOCK
  5
848
330
83E
100
AcDbEntity
  8
0
100
AcDbBlockBegin
  2
*D14
 70
     1
 10
0.0
 20
0.0
 30
0.0
  3
*D14
  1

  0
LINE
  5
1767
330
83E
100
AcDbEntity
  8
0
 62
     0
100
AcDbLine
 10
5834.831670027648
 20
3454.385493772555
 30
0.0
 11
5834.831670027648
 21
4448.35489965057
 31
0.0
  0
LINE
  5
1768
330
83E
100
AcDbEntity
  8
0
 62
     0
100
AcDbLine
 10
8334.831670027648
 20
3454.385493772555
 30
0.0
 11
8334.831670027648
 21
4448.35489965057
 31
0.0
  0
LINE
  5
1769
330
83E
100
AcDbEntity
  8
0
 62
     0
100
AcDbLine
 10
6084.831670027648
 20
4323.35489965057
 30
0.0
 11
8084.831670027648
 21
4323.35489965057
 31
0.0
  0
INSERT
  5
176A
330
83E
100
AcDbEntity
  8
0
 62
     0
100
AcDbBlockReference
  2
_CLOSED
 10
5834.831670027648
 20
4323.35489965057
 30
0.0
 41
250.0
 42
250.0
 43
250.0
 50
180.0
  0
INSERT
  5
176B
330
83E
100
AcDbEntity
  8
0
 62
     0
100
AcDbBlockReference
  2
_CLOSED
 10
8334.831670027648
 20
4323.35489965057
 30
0.0
 41
250.0
 42
250.0
 43
250.0
  0
MTEXT
  5
176C
330
83E
100
AcDbEntity
  8
0
 62
     0
100
AcDbMText
 10
7084.831670027648
 20
4535.85489965057
 30
0.0
 40
300.0
 41
0.0
 71
     5
 72
     1
  1
2500
1001
ACAD
1000
MTEXTBEGIN
1070
    73
1070
     1
1070
    44
1040
1.0
1070
    74
1070
     0
1000
MTEXTEND
1000
MTEXTBEGIN
1070
    73
1070
     1
1070
    44
1040
1.0
1070
    74
1070
     0
1000
MTEXTEND
  0
POINT
  5
176D
330
83E
100
AcDbEntity
  8
DEFPOINTS
 62
     0
100
AcDbPoint
 10
5834.831670027648
 20
3391.885493772555
 30
0.0
  0
POINT
  5
176E
330
83E
100
AcDbEntity
  8
DEFPOINTS
 62
     0
100
AcDbPoint
 10
8334.831670027648
 20
3391.885493772555
 30
0.0
  0
POINT
  5
176F
330
83E
100
AcDbEntity
  8
DEFPOINTS
 62
     0
100
AcDbPoint
 10
8334.831670027648
 20
4323.35489965057
 30
0.0
  0
ENDBLK
  5
849
330
83E
100
AcDbEntity
  8
0
100
AcDbBlockEnd
  0
BLOCK
  5
871
330
867
100
AcDbEntity
  8
0
100
AcDbBlockBegin
  2
*D15
 70
     1
 10
0.0
 20
0.0
 30
0.0
  3
*D15
  1

  0
LINE
  5
1770
330
867
100
AcDbEntity
  8
0
 62
     0
100
AcDbLine
 10
8334.831670027648
 20
3454.385493772555
 30
0.0
 11
8334.831670027648
 21
4448.35489965057
 31
0.0
  0
LINE
  5
1771
330
867
100
AcDbEntity
  8
0
 62
     0
100
AcDbLine
 10
10834.83167002764
 20
3454.385493772555
 30
0.0
 11
10834.83167002764
 21
4448.35489965057
 31
0.0
  0
LINE
  5
1772
330
867
100
AcDbEntity
  8
0
 62
     0
100
AcDbLine
 10
8584.831670027648
 20
4323.35489965057
 30
0.0
 11
10584.83167002764
 21
4323.35489965057
 31
0.0
  0
INSERT
  5
1773
330
867
100
AcDbEntity
  8
0
 62
     0
100
AcDbBlockReference
  2
_DOT
 10
8334.831670027648
 20
4323.35489965057
 30
0.0
 41
250.0
 42
250.0
 43
250.0
 50
180.0
  0
INSERT
  5
1774
330
867
100
AcDbEntity
  8
0
 62
     0
100
AcDbBlockReference
  2
_DOT
 10
10834.83167002764
 20
4323.35489965057
 30
0.0
 41
250.0
 42
250.0
 43
250.0
  0
MTEXT
  5
1775
330
867
100
AcDbEntity
  8
0
 62
     0
100
AcDbMText
 10
9584.831670027648
 20
4535.85489965057
 30
0.0
 40
300.0
 41
0.0
 71
     5
 72
     1
  1
2500
1001
ACAD
1000
MTEXTBEGIN
1070
    73
1070
     1
1070
    44
1040
1.0
1070
    74
1070
     0
1000
MTEXTEND
1000
MTEXTBEGIN
1070
    73
1070
     1
1070
    44
1040
1.0
1070
    74
1070
     0
1000
MTEXTEND
  0
POINT
  5
1776
330
867
100
AcDbEntity
  8
DEFPOINTS
 62
     0
100
AcDbPoint
 10
8334.831670027648
 20
3391.885493772555
 30
0.0
  0
POINT
  5
1777
330
867
100
AcDbEntity
  8
DEFPOINTS
 62
     0
100
AcDbPoint
 10
10834.83167002764
 20
3391.885493772555
 30
0.0
  0
POINT
  5
1778
330
867
100
AcDbEntity
  8
DEFPOINTS
 62
     0
100
AcDbPoint
 10
10834.83167002764
 20
4323.35489965057
 30
0.0
  0
ENDBLK
  5
872
330
867
100
AcDbEntity
  8
0
100
AcDbBlockEnd
  0
BLOCK
  5
87F
330
87C
100
AcDbEntity
  8
0
100
AcDbBlockBegin
  2
_DOT
 70
     0
 10
0.0
 20
0.0
 30
0.0
  3
_DOT
  1

  0
POLYLINE
  5
87D
330
87C
100
AcDbEntity
  8
0
  6
BYBLOCK
 62
     0
100
AcDb2dPolyline
 66
     1
 10
0.0
 20
0.0
 30
0.0
 70
     1
 40
0.5
 41
0.5
  0
VERTEX
  5
20EA
330
87D
100
AcDbEntity
  8
0
  6
BYBLOCK
 62
     0
100
AcDbVertex
100
AcDb2dVertex
 10
-0.25
 20
0.0
 30
0.0
 42
1.0
  0
VERTEX
  5
20EB
330
87D
100
AcDbEntity
  8
0
  6
BYBLOCK
 62
     0
100
AcDbVertex
100
AcDb2dVertex
 10
0.25
 20
0.0
 30
0.0
 42
1.0
  0
SEQEND
  5
20EC
330
87D
100
AcDbEntity
  8
0
  6
BYBLOCK
 62
     0
  0
LINE
  5
87E
330
87C
100
AcDbEntity
  8
0
  6
BYBLOCK
 62
     0
100
AcDbLine
 10
-0.5
 20
0.0
 30
0.0
 11
-1.0
 21
0.0
 31
0.0
  0
ENDBLK
  5
880
330
87C
100
AcDbEntity
  8
0
100
AcDbBlockEnd
  0
BLOCK
  5
8A8
330
89E
100
AcDbEntity
  8
0
100
AcDbBlockBegin
  2
*D17
 70
     1
 10
0.0
 20
0.0
 30
0.0
  3
*D17
  1

  0
LINE
  5
1779
330
89E
100
AcDbEntity
  8
0
 62
     0
100
AcDbLine
 10
10834.83167002764
 20
3454.385493772555
 30
0.0
 11
10834.83167002764
 21
4448.35489965057
 31
0.0
  0
LINE
  5
177A
330
89E
100
AcDbEntity
  8
0
 62
     0
100
AcDbLine
 10
13334.83167002764
 20
3454.385493772555
 30
0.0
 11
13334.83167002764
 21
4448.35489965057
 31
0.0
  0
LINE
  5
177B
330
89E
100
AcDbEntity
  8
0
 62
     0
100
AcDbLine
 10
10834.83167002764
 20
4323.35489965057
 30
0.0
 11
13334.83167002764
 21
4323.35489965057
 31
0.0
  0
INSERT
  5
177C
330
89E
100
AcDbEntity
  8
0
 62
     0
100
AcDbBlockReference
  2
_ARCHTICK
 10
10834.83167002764
 20
4323.35489965057
 30
0.0
 41
250.0
 42
250.0
 43
250.0
 50
180.0
  0
INSERT
  5
177D
330
89E
100
AcDbEntity
  8
0
 62
     0
100
AcDbBlockReference
  2
_ARCHTICK
 10
13334.83167002764
 20
4323.35489965057
 30
0.0
 41
250.0
 42
250.0
 43
250.0
  0
MTEXT
  5
177E
330
89E
100
AcDbEntity
  8
0
 62
     0
100
AcDbMText
 10
12084.83167002764
 20
4535.85489965057
 30
0.0
 40
300.0
 41
0.0
 71
     5
 72
     1
  1
2500
1001
ACAD
1000
MTEXTBEGIN
1070
    73
1070
     1
1070
    44
1040
1.0
1070
    74
1070
     0
1000
MTEXTEND
1000
MTEXTBEGIN
1070
    73
1070
     1
1070
    44
1040
1.0
1070
    74
1070
     0
1000
MTEXTEND
  0
POINT
  5
177F
330
89E
100
AcDbEntity
  8
DEFPOINTS
 62
     0
100
AcDbPoint
 10
10834.83167002764
 20
3391.885493772555
 30
0.0
  0
POINT
  5
1780
330
89E
100
AcDbEntity
  8
DEFPOINTS
 62
     0
100
AcDbPoint
 10
13334.83167002764
 20
3391.885493772555
 30
0.0
  0
POINT
  5
1781
330
89E
100
AcDbEntity
  8
DEFPOINTS
 62
     0
100
AcDbPoint
 10
13334.83167002764
 20
4323.35489965057
 30
0.0
  0
ENDBLK
  5
8A9
330
89E
100
AcDbEntity
  8
0
100
AcDbBlockEnd
  0
BLOCK
  5
8B5
330
8B3
100
AcDbEntity
  8
0
100
AcDbBlockBegin
  2
_ARCHTICK
 70
     0
 10
0.0
 20
0.0
 30
0.0
  3
_ARCHTICK
  1

  0
POLYLINE
  5
8B4
330
8B3
100
AcDbEntity
  8
0
  6
BYBLOCK
 62
     0
100
AcDb2dPolyline
 66
     1
 10
0.0
 20
0.0
 30
0.0
 40
0.15
 41
0.15
  0
VERTEX
  5
20ED
330
8B4
100
AcDbEntity
  8
0
  6
BYBLOCK
 62
     0
100
AcDbVertex
100
AcDb2dVertex
 10
-0.5
 20
-0.5
 30
0.0
  0
VERTEX
  5
20EE
330
8B4
100
AcDbEntity
  8
0
  6
BYBLOCK
 62
     0
100
AcDbVertex
100
AcDb2dVertex
 10
0.5
 20
0.5
 30
0.0
  0
SEQEND
  5
20EF
330
8B4
100
AcDbEntity
  8
0
  6
BYBLOCK
 62
     0
  0
ENDBLK
  5
8B6
330
8B3
100
AcDbEntity
  8
0
100
AcDbBlockEnd
  0
BLOCK
  5
8D5
330
8CB
100
AcDbEntity
  8
0
100
AcDbBlockBegin
  2
*D19
 70
     1
 10
0.0
 20
0.0
 30
0.0
  3
*D19
  1

  0
LINE
  5
1782
330
8CB
100
AcDbEntity
  8
0
 62
     0
100
AcDbLine
 10
13334.83167002764
 20
3454.385493772555
 30
0.0
 11
13334.83167002764
 21
4448.35489965057
 31
0.0
  0
LINE
  5
1783
330
8CB
100
AcDbEntity
  8
0
 62
     0
100
AcDbLine
 10
15834.83167002764
 20
3454.385493772555
 30
0.0
 11
15834.83167002764
 21
4448.35489965057
 31
0.0
  0
LINE
  5
1784
330
8CB
100
AcDbEntity
  8
0
 62
     0
100
AcDbLine
 10
13334.83167002764
 20
4323.35489965057
 30
0.0
 11
15834.83167002764
 21
4323.35489965057
 31
0.0
  0
INSERT
  5
1785
330
8CB
100
AcDbEntity
  8
0
 62
     0
100
AcDbBlockReference
  2
_OBLIQUE
 10
13334.83167002764
 20
4323.35489965057
 30
0.0
 41
250.0
 42
250.0
 43
250.0
 50
180.0
  0
INSERT
  5
1786
330
8CB
100
AcDbEntity
  8
0
 62
     0
100
AcDbBlockReference
  2
_OBLIQUE
 10
15834.83167002764
 20
4323.35489965057
 30
0.0
 41
250.0
 42
250.0
 43
250.0
  0
MTEXT
  5
1787
330
8CB
100
AcDbEntity
  8
0
 62
     0
100
AcDbMText
 10
14584.83167002764
 20
4535.85489965057
 30
0.0
 40
300.0
 41
0.0
 71
     5
 72
     1
  1
2500
1001
ACAD
1000
MTEXTBEGIN
1070
    73
1070
     1
1070
    44
1040
1.0
1070
    74
1070
     0
1000
MTEXTEND
1000
MTEXTBEGIN
1070
    73
1070
     1
1070
    44
1040
1.0
1070
    74
1070
     0
1000
MTEXTEND
  0
POINT
  5
1788
330
8CB
100
AcDbEntity
  8
DEFPOINTS
 62
     0
100
AcDbPoint
 10
13334.83167002764
 20
3391.885493772555
 30
0.0
  0
POINT
  5
1789
330
8CB
100
AcDbEntity
  8
DEFPOINTS
 62
     0
100
AcDbPoint
 10
15834.83167002764
 20
3391.885493772555
 30
0.0
  0
POINT
  5
178A
330
8CB
100
AcDbEntity
  8
DEFPOINTS
 62
     0
100
AcDbPoint
 10
15834.83167002764
 20
4323.35489965057
 30
0.0
  0
ENDBLK
  5
8D6
330
8CB
100
AcDbEntity
  8
0
100
AcDbBlockEnd
  0
BLOCK
  5
8E2
330
8E0
100
AcDbEntity
  8
0
100
AcDbBlockBegin
  2
_OBLIQUE
 70
     0
 10
0.0
 20
0.0
 30
0.0
  3
_OBLIQUE
  1

  0
LINE
  5
8E1
330
8E0
100
AcDbEntity
  8
0
  6
BYBLOCK
 62
     0
100
AcDbLine
 10
-0.5
 20
-0.5
 30
0.0
 11
0.5
 21
0.5
 31
0.0
  0
ENDBLK
  5
8E3
330
8E0
100
AcDbEntity
  8
0
100
AcDbBlockEnd
  0
BLOCK
  5
903
330
8F9
100
AcDbEntity
  8
0
100
AcDbBlockBegin
  2
*D21
 70
     1
 10
0.0
 20
0.0
 30
0.0
  3
*D21
  1

  0
LINE
  5
178B
330
8F9
100
AcDbEntity
  8
0
 62
     0
100
AcDbLine
 10
15834.83167002764
 20
3454.385493772555
 30
0.0
 11
15834.83167002764
 21
4448.35489965057
 31
0.0
  0
LINE
  5
178C
330
8F9
100
AcDbEntity
  8
0
 62
     0
100
AcDbLine
 10
18334.83167002764
 20
3454.385493772555
 30
0.0
 11
18334.83167002764
 21
4448.35489965057
 31
0.0
  0
LINE
  5
178D
330
8F9
100
AcDbEntity
  8
0
 62
     0
100
AcDbLine
 10
16084.83167002764
 20
4323.35489965057
 30
0.0
 11
18084.83167002765
 21
4323.35489965057
 31
0.0
  0
INSERT
  5
178E
330
8F9
100
AcDbEntity
  8
0
 62
     0
100
AcDbBlockReference
  2
_OPEN
 10
15834.83167002764
 20
4323.35489965057
 30
0.0
 41
250.0
 42
250.0
 43
250.0
 50
180.0
  0
INSERT
  5
178F
330
8F9
100
AcDbEntity
  8
0
 62
     0
100
AcDbBlockReference
  2
_OPEN
 10
18334.83167002764
 20
4323.35489965057
 30
0.0
 41
250.0
 42
250.0
 43
250.0
  0
MTEXT
  5
1790
330
8F9
100
AcDbEntity
  8
0
 62
     0
100
AcDbMText
 10
17084.83167002764
 20
4535.85489965057
 30
0.0
 40
300.0
 41
0.0
 71
     5
 72
     1
  1
2500
1001
ACAD
1000
MTEXTBEGIN
1070
    73
1070
     1
1070
    44
1040
1.0
1070
    74
1070
     0
1000
MTEXTEND
1000
MTEXTBEGIN
1070
    73
1070
     1
1070
    44
1040
1.0
1070
    74
1070
     0
1000
MTEXTEND
  0
POINT
  5
1791
330
8F9
100
AcDbEntity
  8
DEFPOINTS
 62
     0
100
AcDbPoint
 10
15834.83167002764
 20
3391.885493772555
 30
0.0
  0
POINT
  5
1792
330
8F9
100
AcDbEntity
  8
DEFPOINTS
 62
     0
100
AcDbPoint
 10
18334.83167002764
 20
3391.885493772555
 30
0.0
  0
POINT
  5
1793
330
8F9
100
AcDbEntity
  8
DEFPOINTS
 62
     0
100
AcDbPoint
 10
18334.83167002764
 20
4323.35489965057
 30
0.0
  0
ENDBLK
  5
904
330
8F9
100
AcDbEntity
  8
0
100
AcDbBlockEnd
  0
BLOCK
  5
912
330
90E
100
AcDbEntity
  8
0
100
AcDbBlockBegin
  2
_OPEN
 70
     0
 10
0.0
 20
0.0
 30
0.0
  3
_OPEN
  1

  0
LINE
  5
90F
330
90E
100
AcDbEntity
  8
0
  6
BYBLOCK
 62
     0
100
AcDbLine
 10
-1.0
 20
0.1666666666666666
 30
0.0
 11
0.0
 21
0.0
 31
0.0
  0
LINE
  5
910
330
90E
100
AcDbEntity
  8
0
  6
BYBLOCK
 62
     0
100
AcDbLine
 10
-1.0
 20
-0.1666666666666666
 30
0.0
 11
0.0
 21
0.0
 31
0.0
  0
LINE
  5
911
330
90E
100
AcDbEntity
  8
0
  6
BYBLOCK
 62
     0
100
AcDbLine
 10
0.0
 20
0.0
 30
0.0
 11
-1.0
 21
0.0
 31
0.0
  0
ENDBLK
  5
913
330
90E
100
AcDbEntity
  8
0
100
AcDbBlockEnd
  0
BLOCK
  5
93B
330
931
100
AcDbEntity
  8
0
100
AcDbBlockBegin
  2
*D23
 70
     1
 10
0.0
 20
0.0
 30
0.0
  3
*D23
  1

  0
LINE
  5
1794
330
931
100
AcDbEntity
  8
0
 62
     0
100
AcDbLine
 10
18334.83167002764
 20
3454.385493772555
 30
0.0
 11
18334.83167002764
 21
4448.35489965057
 31
0.0
  0
LINE
  5
1795
330
931
100
AcDbEntity
  8
0
 62
     0
100
AcDbLine
 10
20834.83167002764
 20
3454.385493772555
 30
0.0
 11
20834.83167002764
 21
4448.35489965057
 31
0.0
  0
LINE
  5
1796
330
931
100
AcDbEntity
  8
0
 62
     0
100
AcDbLine
 10
18584.83167002764
 20
4323.35489965057
 30
0.0
 11
20584.83167002764
 21
4323.35489965057
 31
0.0
  0
INSERT
  5
1797
330
931
100
AcDbEntity
  8
0
 62
     0
100
AcDbBlockReference
  2
_ORIGIN
 10
18334.83167002764
 20
4323.35489965057
 30
0.0
 41
250.0
 42
250.0
 43
250.0
 50
180.0
  0
INSERT
  5
1798
330
931
100
AcDbEntity
  8
0
 62
     0
100
AcDbBlockReference
  2
_ORIGIN
 10
20834.83167002764
 20
4323.35489965057
 30
0.0
 41
250.0
 42
250.0
 43
250.0
  0
MTEXT
  5
1799
330
931
100
AcDbEntity
  8
0
 62
     0
100
AcDbMText
 10
19584.83167002764
 20
4535.85489965057
 30
0.0
 40
300.0
 41
0.0
 71
     5
 72
     1
  1
2500
1001
ACAD
1000
MTEXTBEGIN
1070
    73
1070
     1
1070
    44
1040
1.0
1070
    74
1070
     0
1000
MTEXTEND
1000
MTEXTBEGIN
1070
    73
1070
     1
1070
    44
1040
1.0
1070
    74
1070
     0
1000
MTEXTEND
  0
POINT
  5
179A
330
931
100
AcDbEntity
  8
DEFPOINTS
 62
     0
100
AcDbPoint
 10
18334.83167002764
 20
3391.885493772555
 30
0.0
  0
POINT
  5
179B
330
931
100
AcDbEntity
  8
DEFPOINTS
 62
     0
100
AcDbPoint
 10
20834.83167002764
 20
3391.885493772555
 30
0.0
  0
POINT
  5
179C
330
931
100
AcDbEntity
  8
DEFPOINTS
 62
     0
100
AcDbPoint
 10
20834.83167002764
 20
4323.35489965057
 30
0.0
  0
ENDBLK
  5
93C
330
931
100
AcDbEntity
  8
0
100
AcDbBlockEnd
  0
BLOCK
  5
949
330
946
100
AcDbEntity
  8
0
100
AcDbBlockBegin
  2
_ORIGIN
 70
     0
 10
0.0
 20
0.0
 30
0.0
  3
_ORIGIN
  1

  0
CIRCLE
  5
947
330
946
100
AcDbEntity
  8
0
  6
BYBLOCK
 62
     0
100
AcDbCircle
 10
0.0
 20
0.0
 30
0.0
 40
0.5
  0
LINE
  5
948
330
946
100
AcDbEntity
  8
0
  6
BYBLOCK
 62
     0
100
AcDbLine
 10
0.0
 20
0.0
 30
0.0
 11
-1.0
 21
0.0
 31
0.0
  0
ENDBLK
  5
94A
330
946
100
AcDbEntity
  8
0
100
AcDbBlockEnd
  0
BLOCK
  5
989
330
97F
100
AcDbEntity
  8
0
100
AcDbBlockBegin
  2
*D25
 70
     1
 10
0.0
 20
0.0
 30
0.0
  3
*D25
  1

  0
LINE
  5
179D
330
97F
100
AcDbEntity
  8
0
 62
     0
100
AcDbLine
 10
20834.83167002764
 20
3454.385493772555
 30
0.0
 11
20834.83167002764
 21
4448.35489965057
 31
0.0
  0
LINE
  5
179E
330
97F
100
AcDbEntity
  8
0
 62
     0
100
AcDbLine
 10
23334.83167002765
 20
3454.385493772555
 30
0.0
 11
23334.83167002765
 21
4448.35489965057
 31
0.0
  0
LINE
  5
179F
330
97F
100
AcDbEntity
  8
0
 62
     0
100
AcDbLine
 10
21084.83167002765
 20
4323.35489965057
 30
0.0
 11
23084.83167002764
 21
4323.35489965057
 31
0.0
  0
INSERT
  5
17A0
330
97F
100
AcDbEntity
  8
0
 62
     0
100
AcDbBlockReference
  2
_ORIGIN2
 10
20834.83167002764
 20
4323.35489965057
 30
0.0
 41
250.0
 42
250.0
 43
250.0
 50
180.0
  0
INSERT
  5
17A1
330
97F
100
AcDbEntity
  8
0
 62
     0
100
AcDbBlockReference
  2
_ORIGIN2
 10
23334.83167002765
 20
4323.35489965057
 30
0.0
 41
250.0
 42
250.0
 43
250.0
  0
MTEXT
  5
17A2
330
97F
100
AcDbEntity
  8
0
 62
     0
100
AcDbMText
 10
22084.83167002765
 20
4535.85489965057
 30
0.0
 40
300.0
 41
0.0
 71
     5
 72
     1
  1
2500
1001
ACAD
1000
MTEXTBEGIN
1070
    73
1070
     1
1070
    44
1040
1.0
1070
    74
1070
     0
1000
MTEXTEND
1000
MTEXTBEGIN
1070
    73
1070
     1
1070
    44
1040
1.0
1070
    74
1070
     0
1000
MTEXTEND
  0
POINT
  5
17A3
330
97F
100
AcDbEntity
  8
DEFPOINTS
 62
     0
100
AcDbPoint
 10
20834.83167002764
 20
3391.885493772555
 30
0.0
  0
POINT
  5
17A4
330
97F
100
AcDbEntity
  8
DEFPOINTS
 62
     0
100
AcDbPoint
 10
23334.83167002765
 20
3391.885493772555
 30
0.0
  0
POINT
  5
17A5
330
97F
100
AcDbEntity
  8
DEFPOINTS
 62
     0
100
AcDbPoint
 10
23334.83167002765
 20
4323.35489965057
 30
0.0
  0
ENDBLK
  5
98A
330
97F
100
AcDbEntity
  8
0
100
AcDbBlockEnd
  0
BLOCK
  5
998
330
994
100
AcDbEntity
  8
0
100
AcDbBlockBegin
  2
_ORIGIN2
 70
     0
 10
0.0
 20
0.0
 30
0.0
  3
_ORIGIN2
  1

  0
CIRCLE
  5
995
330
994
100
AcDbEntity
  8
0
  6
BYBLOCK
 62
     0
100
AcDbCircle
 10
0.0
 20
0.0
 30
0.0
 40
0.5
  0
CIRCLE
  5
996
330
994
100
AcDbEntity
  8
0
  6
BYBLOCK
 62
     0
100
AcDbCircle
 10
0.0
 20
0.0
 30
0.0
 40
0.25
  0
LINE
  5
997
330
994
100
AcDbEntity
  8
0
  6
BYBLOCK
 62
     0
100
AcDbLine
 10
-0.5
 20
0.0
 30
0.0
 11
-1.0
 21
0.0
 31
0.0
  0
ENDBLK
  5
999
330
994
100
AcDbEntity
  8
0
100
AcDbBlockEnd
  0
BLOCK
  5
9CF
330
9C5
100
AcDbEntity
  8
0
100
AcDbBlockBegin
  2
*D27
 70
     1
 10
0.0
 20
0.0
 30
0.0
  3
*D27
  1

  0
LINE
  5
17A6
330
9C5
100
AcDbEntity
  8
0
 62
     0
100
AcDbLine
 10
23334.83167002765
 20
3454.385493772555
 30
0.0
 11
23334.83167002765
 21
4448.35489965057
 31
0.0
  0
LINE
  5
17A7
330
9C5
100
AcDbEntity
  8
0
 62
     0
100
AcDbLine
 10
25834.83167002765
 20
3454.385493772555
 30
0.0
 11
25834.83167002765
 21
4448.35489965057
 31
0.0
  0
LINE
  5
17A8
330
9C5
100
AcDbEntity
  8
0
 62
     0
100
AcDbLine
 10
23584.83167002765
 20
4323.35489965057
 30
0.0
 11
25584.83167002764
 21
4323.35489965057
 31
0.0
  0
INSERT
  5
17A9
330
9C5
100
AcDbEntity
  8
0
 62
     0
100
AcDbBlockReference
  2
_OPEN90
 10
23334.83167002765
 20
4323.35489965057
 30
0.0
 41
250.0
 42
250.0
 43
250.0
 50
180.0
  0
INSERT
  5
17AA
330
9C5
100
AcDbEntity
  8
0
 62
     0
100
AcDbBlockReference
  2
_OPEN90
 10
25834.83167002765
 20
4323.35489965057
 30
0.0
 41
250.0
 42
250.0
 43
250.0
  0
MTEXT
  5
17AB
330
9C5
100
AcDbEntity
  8
0
 62
     0
100
AcDbMText
 10
24584.83167002765
 20
4535.85489965057
 30
0.0
 40
300.0
 41
0.0
 71
     5
 72
     1
  1
2500
1001
ACAD
1000
MTEXTBEGIN
1070
    73
1070
     1
1070
    44
1040
1.0
1070
    74
1070
     0
1000
MTEXTEND
1000
MTEXTBEGIN
1070
    73
1070
     1
1070
    44
1040
1.0
1070
    74
1070
     0
1000
MTEXTEND
  0
POINT
  5
17AC
330
9C5
100
AcDbEntity
  8
DEFPOINTS
 62
     0
100
AcDbPoint
 10
23334.83167002765
 20
3391.885493772555
 30
0.0
  0
POINT
  5
17AD
330
9C5
100
AcDbEntity
  8
DEFPOINTS
 62
     0
100
AcDbPoint
 10
25834.83167002765
 20
3391.885493772555
 30
0.0
  0
POINT
  5
17AE
330
9C5
100
AcDbEntity
  8
DEFPOINTS
 62
     0
100
AcDbPoint
 10
25834.83167002765
 20
4323.35489965057
 30
0.0
  0
ENDBLK
  5
9D0
330
9C5
100
AcDbEntity
  8
0
100
AcDbBlockEnd
  0
BLOCK
  5
9DE
330
9DA
100
AcDbEntity
  8
0
100
AcDbBlockBegin
  2
_OPEN90
 70
     0
 10
0.0
 20
0.0
 30
0.0
  3
_OPEN90
  1

  0
LINE
  5
9DB
330
9DA
100
AcDbEntity
  8
0
  6
BYBLOCK
 62
     0
100
AcDbLine
 10
-0.5
 20
0.5
 30
0.0
 11
0.0
 21
0.0
 31
0.0
  0
LINE
  5
9DC
330
9DA
100
AcDbEntity
  8
0
  6
BYBLOCK
 62
     0
100
AcDbLine
 10
0.0
 20
0.0
 30
0.0
 11
-0.5
 21
-0.5
 31
0.0
  0
LINE
  5
9DD
330
9DA
100
AcDbEntity
  8
0
  6
BYBLOCK
 62
     0
100
AcDbLine
 10
0.0
 20
0.0
 30
0.0
 11
-1.0
 21
0.0
 31
0.0
  0
ENDBLK
  5
9DF
330
9DA
100
AcDbEntity
  8
0
100
AcDbBlockEnd
  0
BLOCK
  5
ABB
330
AB1
100
AcDbEntity
  8
0
100
AcDbBlockBegin
  2
*D29
 70
     1
 10
0.0
 20
0.0
 30
0.0
  3
*D29
  1

  0
LINE
  5
17AF
330
AB1
100
AcDbEntity
  8
0
 62
     0
100
AcDbLine
 10
25834.83167002765
 20
3454.385493772555
 30
0.0
 11
25834.83167002765
 21
4448.35489965057
 31
0.0
  0
LINE
  5
17B0
330
AB1
100
AcDbEntity
  8
0
 62
     0
100
AcDbLine
 10
28334.83167002765
 20
3454.385493772555
 30
0.0
 11
28334.83167002765
 21
4448.35489965057
 31
0.0
  0
LINE
  5
17B1
330
AB1
100
AcDbEntity
  8
0
 62
     0
100
AcDbLine
 10
26084.83167002765
 20
4323.35489965057
 30
0.0
 11
28084.83167002764
 21
4323.35489965057
 31
0.0
  0
INSERT
  5
17B2
330
AB1
100
AcDbEntity
  8
0
 62
     0
100
AcDbBlockReference
  2
_OPEN30
 10
25834.83167002765
 20
4323.35489965057
 30
0.0
 41
250.0
 42
250.0
 43
250.0
 50
180.0
  0
INSERT
  5
17B3
330
AB1
100
AcDbEntity
  8
0
 62
     0
100
AcDbBlockReference
  2
_OPEN30
 10
28334.83167002765
 20
4323.35489965057
 30
0.0
 41
250.0
 42
250.0
 43
250.0
  0
MTEXT
  5
17B4
330
AB1
100
AcDbEntity
  8
0
 62
     0
100
AcDbMText
 10
27084.83167002765
 20
4535.85489965057
 30
0.0
 40
300.0
 41
0.0
 71
     5
 72
     1
  1
2500
1001
ACAD
1000
MTEXTBEGIN
1070
    73
1070
     1
1070
    44
1040
1.0
1070
    74
1070
     0
1000
MTEXTEND
1000
MTEXTBEGIN
1070
    73
1070
     1
1070
    44
1040
1.0
1070
    74
1070
     0
1000
MTEXTEND
  0
POINT
  5
17B5
330
AB1
100
AcDbEntity
  8
DEFPOINTS
 62
     0
100
AcDbPoint
 10
25834.83167002765
 20
3391.885493772555
 30
0.0
  0
POINT
  5
17B6
330
AB1
100
AcDbEntity
  8
DEFPOINTS
 62
     0
100
AcDbPoint
 10
28334.83167002765
 20
3391.885493772555
 30
0.0
  0
POINT
  5
17B7
330
AB1
100
AcDbEntity
  8
DEFPOINTS
 62
     0
100
AcDbPoint
 10
28334.83167002765
 20
4323.35489965057
 30
0.0
  0
ENDBLK
  5
ABC
330
AB1
100
AcDbEntity
  8
0
100
AcDbBlockEnd
  0
BLOCK
  5
ACA
330
AC6
100
AcDbEntity
  8
0
100
AcDbBlockBegin
  2
_OPEN30
 70
     0
 10
0.0
 20
0.0
 30
0.0
  3
_OPEN30
  1

  0
LINE
  5
AC7
330
AC6
100
AcDbEntity
  8
0
  6
BYBLOCK
 62
     0
100
AcDbLine
 10
-1.0
 20
0.26794919
 30
0.0
 11
0.0
 21
0.0
 31
0.0
  0
LINE
  5
AC8
330
AC6
100
AcDbEntity
  8
0
  6
BYBLOCK
 62
     0
100
AcDbLine
 10
0.0
 20
0.0
 30
0.0
 11
-1.0
 21
-0.26794919
 31
0.0
  0
LINE
  5
AC9
330
AC6
100
AcDbEntity
  8
0
  6
BYBLOCK
 62
     0
100
AcDbLine
 10
0.0
 20
0.0
 30
0.0
 11
-1.0
 21
0.0
 31
0.0
  0
ENDBLK
  5
ACB
330
AC6
100
AcDbEntity
  8
0
100
AcDbBlockEnd
  0
BLOCK
  5
AF3
330
AE9
100
AcDbEntity
  8
0
100
AcDbBlockBegin
  2
*D31
 70
     1
 10
0.0
 20
0.0
 30
0.0
  3
*D31
  1

  0
LINE
  5
17B8
330
AE9
100
AcDbEntity
  8
0
 62
     0
100
AcDbLine
 10
28334.83167002765
 20
3454.385493772555
 30
0.0
 11
28334.83167002765
 21
4448.35489965057
 31
0.0
  0
LINE
  5
17B9
330
AE9
100
AcDbEntity
  8
0
 62
     0
100
AcDbLine
 10
30834.83167002765
 20
3454.385493772555
 30
0.0
 11
30834.83167002765
 21
4448.35489965057
 31
0.0
  0
LINE
  5
17BA
330
AE9
100
AcDbEntity
  8
0
 62
     0
100
AcDbLine
 10
28334.83167002765
 20
4323.35489965057
 30
0.0
 11
30834.83167002765
 21
4323.35489965057
 31
0.0
  0
INSERT
  5
17BB
330
AE9
100
AcDbEntity
  8
0
 62
     0
100
AcDbBlockReference
  2
_DOTSMALL
 10
28334.83167002765
 20
4323.35489965057
 30
0.0
 41
250.0
 42
250.0
 43
250.0
 50
180.0
  0
INSERT
  5
17BC
330
AE9
100
AcDbEntity
  8
0
 62
     0
100
AcDbBlockReference
  2
_DOTSMALL
 10
30834.83167002765
 20
4323.35489965057
 30
0.0
 41
250.0
 42
250.0
 43
250.0
  0
MTEXT
  5
17BD
330
AE9
100
AcDbEntity
  8
0
 62
     0
100
AcDbMText
 10
29584.83167002765
 20
4535.85489965057
 30
0.0
 40
300.0
 41
0.0
 71
     5
 72
     1
  1
2500
1001
ACAD
1000
MTEXTBEGIN
1070
    73
1070
     1
1070
    44
1040
1.0
1070
    74
1070
     0
1000
MTEXTEND
1000
MTEXTBEGIN
1070
    73
1070
     1
1070
    44
1040
1.0
1070
    74
1070
     0
1000
MTEXTEND
  0
POINT
  5
17BE
330
AE9
100
AcDbEntity
  8
DEFPOINTS
 62
     0
100
AcDbPoint
 10
28334.83167002765
 20
3391.885493772555
 30
0.0
  0
POINT
  5
17BF
330
AE9
100
AcDbEntity
  8
DEFPOINTS
 62
     0
100
AcDbPoint
 10
30834.83167002765
 20
3391.885493772555
 30
0.0
  0
POINT
  5
17C0
330
AE9
100
AcDbEntity
  8
DEFPOINTS
 62
     0
100
AcDbPoint
 10
30834.83167002765
 20
4323.35489965057
 30
0.0
  0
ENDBLK
  5
AF4
330
AE9
100
AcDbEntity
  8
0
100
AcDbBlockEnd
  0
BLOCK
  5
B00
330
AFE
100
AcDbEntity
  8
0
100
AcDbBlockBegin
  2
_DOTSMALL
 70
     0
 10
0.0
 20
0.0
 30
0.0
  3
_DOTSMALL
  1

  0
POLYLINE
  5
AFF
330
AFE
100
AcDbEntity
  8
0
  6
BYBLOCK
 62
     0
100
AcDb2dPolyline
 66
     1
 10
0.0
 20
0.0
 30
0.0
 70
     1
 40
0.5
 41
0.5
  0
VERTEX
  5
20F0
330
AFF
100
AcDbEntity
  8
0
  6
BYBLOCK
 62
     0
100
AcDbVertex
100
AcDb2dVertex
 10
-0.0625
 20
0.0
 30
0.0
 42
1.0
  0
VERTEX
  5
20F1
330
AFF
100
AcDbEntity
  8
0
  6
BYBLOCK
 62
     0
100
AcDbVertex
100
AcDb2dVertex
 10
0.0625
 20
0.0
 30
0.0
 42
1.0
  0
SEQEND
  5
20F2
330
AFF
100
AcDbEntity
  8
0
  6
BYBLOCK
 62
     0
  0
ENDBLK
  5
B01
330
AFE
100
AcDbEntity
  8
0
100
AcDbBlockEnd
  0
BLOCK
  5
B29
330
B1F
100
AcDbEntity
  8
0
100
AcDbBlockBegin
  2
*D33
 70
     1
 10
0.0
 20
0.0
 30
0.0
  3
*D33
  1

  0
LINE
  5
17C1
330
B1F
100
AcDbEntity
  8
0
 62
     0
100
AcDbLine
 10
30834.83167002765
 20
3454.385493772555
 30
0.0
 11
30834.83167002765
 21
4448.35489965057
 31
0.0
  0
LINE
  5
17C2
330
B1F
100
AcDbEntity
  8
0
 62
     0
100
AcDbLine
 10
33334.83167002765
 20
3454.385493772555
 30
0.0
 11
33334.83167002765
 21
4448.35489965057
 31
0.0
  0
LINE
  5
17C3
330
B1F
100
AcDbEntity
  8
0
 62
     0
100
AcDbLine
 10
31084.83167002765
 20
4323.35489965057
 30
0.0
 11
33084.83167002764
 21
4323.35489965057
 31
0.0
  0
INSERT
  5
17C4
330
B1F
100
AcDbEntity
  8
0
 62
     0
100
AcDbBlockReference
  2
_DOTBLANK
 10
30834.83167002765
 20
4323.35489965057
 30
0.0
 41
250.0
 42
250.0
 43
250.0
 50
180.0
  0
INSERT
  5
17C5
330
B1F
100
AcDbEntity
  8
0
 62
     0
100
AcDbBlockReference
  2
_DOTBLANK
 10
33334.83167002765
 20
4323.35489965057
 30
0.0
 41
250.0
 42
250.0
 43
250.0
  0
MTEXT
  5
17C6
330
B1F
100
AcDbEntity
  8
0
 62
     0
100
AcDbMText
 10
32084.83167002765
 20
4535.85489965057
 30
0.0
 40
300.0
 41
0.0
 71
     5
 72
     1
  1
2500
1001
ACAD
1000
MTEXTBEGIN
1070
    73
1070
     1
1070
    44
1040
1.0
1070
    74
1070
     0
1000
MTEXTEND
1000
MTEXTBEGIN
1070
    73
1070
     1
1070
    44
1040
1.0
1070
    74
1070
     0
1000
MTEXTEND
  0
POINT
  5
17C7
330
B1F
100
AcDbEntity
  8
DEFPOINTS
 62
     0
100
AcDbPoint
 10
30834.83167002765
 20
3391.885493772555
 30
0.0
  0
POINT
  5
17C8
330
B1F
100
AcDbEntity
  8
DEFPOINTS
 62
     0
100
AcDbPoint
 10
33334.83167002765
 20
3391.885493772555
 30
0.0
  0
POINT
  5
17C9
330
B1F
100
AcDbEntity
  8
DEFPOINTS
 62
     0
100
AcDbPoint
 10
33334.83167002765
 20
4323.35489965057
 30
0.0
  0
ENDBLK
  5
B2A
330
B1F
100
AcDbEntity
  8
0
100
AcDbBlockEnd
  0
BLOCK
  5
B37
330
B34
100
AcDbEntity
  8
0
100
AcDbBlockBegin
  2
_DOTBLANK
 70
     0
 10
0.0
 20
0.0
 30
0.0
  3
_DOTBLANK
  1

  0
CIRCLE
  5
B35
330
B34
100
AcDbEntity
  8
0
  6
BYBLOCK
 62
     0
100
AcDbCircle
 10
0.0
 20
0.0
 30
0.0
 40
0.5
  0
LINE
  5
B36
330
B34
100
AcDbEntity
  8
0
  6
BYBLOCK
 62
     0
100
AcDbLine
 10
-0.5
 20
0.0
 30
0.0
 11
-1.0
 21
0.0
 31
0.0
  0
ENDBLK
  5
B38
330
B34
100
AcDbEntity
  8
0
100
AcDbBlockEnd
  0
BLOCK
  5
B61
330
B57
100
AcDbEntity
  8
0
100
AcDbBlockBegin
  2
*D35
 70
     1
 10
0.0
 20
0.0
 30
0.0
  3
*D35
  1

  0
LINE
  5
17CA
330
B57
100
AcDbEntity
  8
0
 62
     0
100
AcDbLine
 10
33334.83167002765
 20
3454.385493772555
 30
0.0
 11
33334.83167002765
 21
4448.35489965057
 31
0.0
  0
LINE
  5
17CB
330
B57
100
AcDbEntity
  8
0
 62
     0
100
AcDbLine
 10
35834.83167002765
 20
3454.385493772555
 30
0.0
 11
35834.83167002765
 21
4448.35489965057
 31
0.0
  0
LINE
  5
17CC
330
B57
100
AcDbEntity
  8
0
 62
     0
100
AcDbLine
 10
33334.83167002765
 20
4323.35489965057
 30
0.0
 11
35834.83167002765
 21
4323.35489965057
 31
0.0
  0
INSERT
  5
17CD
330
B57
100
AcDbEntity
  8
0
 62
     0
100
AcDbBlockReference
  2
_SMALL
 10
33334.83167002765
 20
4323.35489965057
 30
0.0
 41
250.0
 42
250.0
 43
250.0
 50
180.0
  0
INSERT
  5
17CE
330
B57
100
AcDbEntity
  8
0
 62
     0
100
AcDbBlockReference
  2
_SMALL
 10
35834.83167002765
 20
4323.35489965057
 30
0.0
 41
250.0
 42
250.0
 43
250.0
  0
MTEXT
  5
17CF
330
B57
100
AcDbEntity
  8
0
 62
     0
100
AcDbMText
 10
34584.83167002765
 20
4535.85489965057
 30
0.0
 40
300.0
 41
0.0
 71
     5
 72
     1
  1
2500
1001
ACAD
1000
MTEXTBEGIN
1070
    73
1070
     1
1070
    44
1040
1.0
1070
    74
1070
     0
1000
MTEXTEND
1000
MTEXTBEGIN
1070
    73
1070
     1
1070
    44
1040
1.0
1070
    74
1070
     0
1000
MTEXTEND
  0
POINT
  5
17D0
330
B57
100
AcDbEntity
  8
DEFPOINTS
 62
     0
100
AcDbPoint
 10
33334.83167002765
 20
3391.885493772555
 30
0.0
  0
POINT
  5
17D1
330
B57
100
AcDbEntity
  8
DEFPOINTS
 62
     0
100
AcDbPoint
 10
35834.83167002765
 20
3391.885493772555
 30
0.0
  0
POINT
  5
17D2
330
B57
100
AcDbEntity
  8
DEFPOINTS
 62
     0
100
AcDbPoint
 10
35834.83167002765
 20
4323.35489965057
 30
0.0
  0
ENDBLK
  5
B62
330
B57
100
AcDbEntity
  8
0
100
AcDbBlockEnd
  0
BLOCK
  5
B6E
330
B6C
100
AcDbEntity
  8
0
100
AcDbBlockBegin
  2
_SMALL
 70
     0
 10
0.0
 20
0.0
 30
0.0
  3
_SMALL
  1

  0
CIRCLE
  5
B6D
330
B6C
100
AcDbEntity
  8
0
  6
BYBLOCK
 62
     0
100
AcDbCircle
 10
0.0
 20
0.0
 30
0.0
 40
0.25
  0
ENDBLK
  5
B6F
330
B6C
100
AcDbEntity
  8
0
100
AcDbBlockEnd
  0
BLOCK
  5
B8E
330
B84
100
AcDbEntity
  8
0
100
AcDbBlockBegin
  2
*D37
 70
     1
 10
0.0
 20
0.0
 30
0.0
  3
*D37
  1

  0
LINE
  5
17D3
330
B84
100
AcDbEntity
  8
0
 62
     0
100
AcDbLine
 10
35834.83167002765
 20
3454.385493772555
 30
0.0
 11
35834.83167002765
 21
4448.35489965057
 31
0.0
  0
LINE
  5
17D4
330
B84
100
AcDbEntity
  8
0
 62
     0
100
AcDbLine
 10
38334.83167002765
 20
3454.385493772555
 30
0.0
 11
38334.83167002765
 21
4448.35489965057
 31
0.0
  0
LINE
  5
17D5
330
B84
100
AcDbEntity
  8
0
 62
     0
100
AcDbLine
 10
36084.83167002765
 20
4323.35489965057
 30
0.0
 11
38084.83167002764
 21
4323.35489965057
 31
0.0
  0
INSERT
  5
17D6
330
B84
100
AcDbEntity
  8
0
 62
     0
100
AcDbBlockReference
  2
_BOXBLANK
 10
35834.83167002765
 20
4323.35489965057
 30
0.0
 41
250.0
 42
250.0
 43
250.0
 50
180.0
  0
INSERT
  5
17D7
330
B84
100
AcDbEntity
  8
0
 62
     0
100
AcDbBlockReference
  2
_BOXBLANK
 10
38334.83167002765
 20
4323.35489965057
 30
0.0
 41
250.0
 42
250.0
 43
250.0
  0
MTEXT
  5
17D8
330
B84
100
AcDbEntity
  8
0
 62
     0
100
AcDbMText
 10
37084.83167002765
 20
4535.85489965057
 30
0.0
 40
300.0
 41
0.0
 71
     5
 72
     1
  1
2500
1001
ACAD
1000
MTEXTBEGIN
1070
    73
1070
     1
1070
    44
1040
1.0
1070
    74
1070
     0
1000
MTEXTEND
1000
MTEXTBEGIN
1070
    73
1070
     1
1070
    44
1040
1.0
1070
    74
1070
     0
1000
MTEXTEND
  0
POINT
  5
17D9
330
B84
100
AcDbEntity
  8
DEFPOINTS
 62
     0
100
AcDbPoint
 10
35834.83167002765
 20
3391.885493772555
 30
0.0
  0
POINT
  5
17DA
330
B84
100
AcDbEntity
  8
DEFPOINTS
 62
     0
100
AcDbPoint
 10
38334.83167002765
 20
3391.885493772555
 30
0.0
  0
POINT
  5
17DB
330
B84
100
AcDbEntity
  8
DEFPOINTS
 62
     0
100
AcDbPoint
 10
38334.83167002765
 20
4323.35489965057
 30
0.0
  0
ENDBLK
  5
B8F
330
B84
100
AcDbEntity
  8
0
100
AcDbBlockEnd
  0
BLOCK
  5
B9F
330
B99
100
AcDbEntity
  8
0
100
AcDbBlockBegin
  2
_BOXBLANK
 70
     0
 10
0.0
 20
0.0
 30
0.0
  3
_BOXBLANK
  1

  0
LINE
  5
B9A
330
B99
100
AcDbEntity
  8
0
  6
BYBLOCK
 62
     0
100
AcDbLine
 10
-0.5
 20
-0.5
 30
0.0
 11
0.5
 21
-0.5
 31
0.0
  0
LINE
  5
B9B
330
B99
100
AcDbEntity
  8
0
  6
BYBLOCK
 62
     0
100
AcDbLine
 10
0.5
 20
-0.5
 30
0.0
 11
0.5
 21
0.5
 31
0.0
  0
LINE
  5
B9C
330
B99
100
AcDbEntity
  8
0
  6
BYBLOCK
 62
     0
100
AcDbLine
 10
0.5
 20
0.5
 30
0.0
 11
-0.5
 21
0.5
 31
0.0
  0
LINE
  5
B9D
330
B99
100
AcDbEntity
  8
0
  6
BYBLOCK
 62
     0
100
AcDbLine
 10
-0.5
 20
0.5
 30
0.0
 11
-0.5
 21
-0.5
 31
0.0
  0
LINE
  5
B9E
330
B99
100
AcDbEntity
  8
0
  6
BYBLOCK
 62
     0
100
AcDbLine
 10
-0.5
 20
0.0
 30
0.0
 11
-1.0
 21
0.0
 31
0.0
  0
ENDBLK
  5
BA0
330
B99
100
AcDbEntity
  8
0
100
AcDbBlockEnd
  0
BLOCK
  5
E70
330
E66
100
AcDbEntity
  8
0
100
AcDbBlockBegin
  2
*D39
 70
     1
 10
0.0
 20
0.0
 30
0.0
  3
*D39
  1

  0
LINE
  5
17DC
330
E66
100
AcDbEntity
  8
0
 62
     0
100
AcDbLine
 10
38334.83167002765
 20
3454.385493772555
 30
0.0
 11
38334.83167002765
 21
4448.35489965057
 31
0.0
  0
LINE
  5
17DD
330
E66
100
AcDbEntity
  8
0
 62
     0
100
AcDbLine
 10
40834.83167002764
 20
3454.385493772555
 30
0.0
 11
40834.83167002764
 21
4448.35489965057
 31
0.0
  0
LINE
  5
17DE
330
E66
100
AcDbEntity
  8
0
 62
     0
100
AcDbLine
 10
38584.83167002765
 20
4323.35489965057
 30
0.0
 11
40584.83167002765
 21
4323.35489965057
 31
0.0
  0
INSERT
  5
17DF
330
E66
100
AcDbEntity
  8
0
 62
     0
100
AcDbBlockReference
  2
_BOXFILLED
 10
38334.83167002765
 20
4323.35489965057
 30
0.0
 41
250.0
 42
250.0
 43
250.0
 50
180.0
  0
INSERT
  5
17E0
330
E66
100
AcDbEntity
  8
0
 62
     0
100
AcDbBlockReference
  2
_BOXFILLED
 10
40834.83167002764
 20
4323.35489965057
 30
0.0
 41
250.0
 42
250.0
 43
250.0
  0
MTEXT
  5
17E1
330
E66
100
AcDbEntity
  8
0
 62
     0
100
AcDbMText
 10
39584.83167002765
 20
4535.85489965057
 30
0.0
 40
300.0
 41
0.0
 71
     5
 72
     1
  1
2500
1001
ACAD
1000
MTEXTBEGIN
1070
    73
1070
     1
1070
    44
1040
1.0
1070
    74
1070
     0
1000
MTEXTEND
1000
MTEXTBEGIN
1070
    73
1070
     1
1070
    44
1040
1.0
1070
    74
1070
     0
1000
MTEXTEND
  0
POINT
  5
17E2
330
E66
100
AcDbEntity
  8
DEFPOINTS
 62
     0
100
AcDbPoint
 10
38334.83167002765
 20
3391.885493772555
 30
0.0
  0
POINT
  5
17E3
330
E66
100
AcDbEntity
  8
DEFPOINTS
 62
     0
100
AcDbPoint
 10
40834.83167002764
 20
3391.885493772555
 30
0.0
  0
POINT
  5
17E4
330
E66
100
AcDbEntity
  8
DEFPOINTS
 62
     0
100
AcDbPoint
 10
40834.83167002764
 20
4323.35489965057
 30
0.0
  0
ENDBLK
  5
E71
330
E66
100
AcDbEntity
  8
0
100
AcDbBlockEnd
  0
BLOCK
  5
E7E
330
E7B
100
AcDbEntity
  8
0
100
AcDbBlockBegin
  2
_BOXFILLED
 70
     0
 10
0.0
 20
0.0
 30
0.0
  3
_BOXFILLED
  1

  0
SOLID
  5
E7C
330
E7B
100
AcDbEntity
  8
0
  6
BYBLOCK
 62
     0
100
AcDbTrace
 10
-0.5
 20
0.5
 30
0.0
 11
0.5
 21
0.5
 31
0.0
 12
-0.5
 22
-0.5
 32
0.0
 13
0.5
 23
-0.5
 33
0.0
  0
LINE
  5
E7D
330
E7B
100
AcDbEntity
  8
0
  6
BYBLOCK
 62
     0
100
AcDbLine
 10
-0.5
 20
0.0
 30
0.0
 11
-1.0
 21
0.0
 31
0.0
  0
ENDBLK
  5
E7F
330
E7B
100
AcDbEntity
  8
0
100
AcDbBlockEnd
  0
BLOCK
  5
E9F
330
E95
100
AcDbEntity
  8
0
100
AcDbBlockBegin
  2
*D41
 70
     1
 10
0.0
 20
0.0
 30
0.0
  3
*D41
  1

  0
LINE
  5
1DBB
330
E95
100
AcDbEntity
  8
0
 62
     0
100
AcDbLine
 10
3874.072001619017
 20
794.9176621089645
 30
0.0
 11
3874.072001619017
 21
1788.887067986979
 31
0.0
  0
LINE
  5
1DBC
330
E95
100
AcDbEntity
  8
0
 62
     0
100
AcDbLine
 10
6374.072001619017
 20
794.9176621089645
 30
0.0
 11
6374.072001619017
 21
1788.887067986979
 31
0.0
  0
LINE
  5
1DBD
330
E95
100
AcDbEntity
  8
0
 62
     0
100
AcDbLine
 10
4124.072001619017
 20
1663.887067986979
 30
0.0
 11
6124.072001619017
 21
1663.887067986979
 31
0.0
  0
INSERT
  5
1DBE
330
E95
100
AcDbEntity
  8
0
 62
     0
100
AcDbBlockReference
  2
_DATUMBLANK
 10
3874.072001619017
 20
1663.887067986979
 30
0.0
 41
250.0
 42
250.0
 43
250.0
 50
180.0
  0
INSERT
  5
1DBF
330
E95
100
AcDbEntity
  8
0
 62
     0
100
AcDbBlockReference
  2
_DATUMBLANK
 10
6374.072001619017
 20
1663.887067986979
 30
0.0
 41
250.0
 42
250.0
 43
250.0
  0
MTEXT
  5
1DC0
330
E95
100
AcDbEntity
  8
0
 62
     0
100
AcDbMText
 10
5124.072001619017
 20
1876.387067986979
 30
0.0
 40
300.0
 41
0.0
 71
     5
 72
     1
  1
2500
1001
ACAD
1000
MTEXTBEGIN
1070
    73
1070
     1
1070
    44
1040
1.0
1070
    74
1070
     0
1000
MTEXTEND
  0
POINT
  5
1DC1
330
E95
100
AcDbEntity
  8
DEFPOINTS
 62
     0
100
AcDbPoint
 10
3874.072001619017
 20
732.4176621089645
 30
0.0
  0
POINT
  5
1DC2
330
E95
100
AcDbEntity
  8
DEFPOINTS
 62
     0
100
AcDbPoint
 10
6374.072001619017
 20
732.4176621089645
 30
0.0
  0
POINT
  5
1DC3
330
E95
100
AcDbEntity
  8
DEFPOINTS
 62
     0
100
AcDbPoint
 10
6374.072001619017
 20
1663.887067986979
 30
0.0
  0
ENDBLK
  5
EA0
330
E95
100
AcDbEntity
  8
0
100
AcDbBlockEnd
  0
BLOCK
  5
EAE
330
EAA
100
AcDbEntity
  8
0
100
AcDbBlockBegin
  2
_DATUMBLANK
 70
     0
 10
0.0
 20
0.0
 30
0.0
  3
_DATUMBLANK
  1

  0
LINE
  5
EAB
330
EAA
100
AcDbEntity
  8
0
  6
BYBLOCK
 62
     0
100
AcDbLine
 10
0.0
 20
0.5773502700000001
 30
0.0
 11
-1.0
 21
0.0
 31
0.0
  0
LINE
  5
EAC
330
EAA
100
AcDbEntity
  8
0
  6
BYBLOCK
 62
     0
100
AcDbLine
 10
-1.0
 20
0.0
 30
0.0
 11
0.0
 21
-0.5773502700000001
 31
0.0
  0
LINE
  5
EAD
330
EAA
100
AcDbEntity
  8
0
  6
BYBLOCK
 62
     0
100
AcDbLine
 10
0.0
 20
-0.5773502700000001
 30
0.0
 11
0.0
 21
0.5773502700000001
 31
0.0
  0
ENDBLK
  5
EAF
330
EAA
100
AcDbEntity
  8
0
100
AcDbBlockEnd
  0
BLOCK
  5
F8C
330
F82
100
AcDbEntity
  8
0
100
AcDbBlockBegin
  2
*D43
 70
     1
 10
0.0
 20
0.0
 30
0.0
  3
*D43
  1

  0
LINE
  5
1DD4
330
F82
100
AcDbEntity
  8
0
 62
     0
100
AcDbLine
 10
6374.072001619017
 20
794.9176621089645
 30
0.0
 11
6374.072001619017
 21
1788.887067986979
 31
0.0
  0
LINE
  5
1DD5
330
F82
100
AcDbEntity
  8
0
 62
     0
100
AcDbLine
 10
8874.072001619017
 20
794.9176621089645
 30
0.0
 11
8874.072001619017
 21
1788.887067986979
 31
0.0
  0
LINE
  5
1DD6
330
F82
100
AcDbEntity
  8
0
 62
     0
100
AcDbLine
 10
6624.072001619016
 20
1663.887067986979
 30
0.0
 11
8624.072001619017
 21
1663.887067986979
 31
0.0
  0
INSERT
  5
1DD7
330
F82
100
AcDbEntity
  8
0
 62
     0
100
AcDbBlockReference
  2
_DATUMFILLED
 10
6374.072001619017
 20
1663.887067986979
 30
0.0
 41
250.0
 42
250.0
 43
250.0
 50
180.0
  0
INSERT
  5
1DD8
330
F82
100
AcDbEntity
  8
0
 62
     0
100
AcDbBlockReference
  2
_DATUMFILLED
 10
8874.072001619017
 20
1663.887067986979
 30
0.0
 41
250.0
 42
250.0
 43
250.0
  0
MTEXT
  5
1DD9
330
F82
100
AcDbEntity
  8
0
 62
     0
100
AcDbMText
 10
7624.072001619016
 20
1876.387067986979
 30
0.0
 40
300.0
 41
0.0
 71
     5
 72
     1
  1
2500
1001
ACAD
1000
MTEXTBEGIN
1070
    73
1070
     1
1070
    44
1040
1.0
1070
    74
1070
     0
1000
MTEXTEND
  0
POINT
  5
1DDA
330
F82
100
AcDbEntity
  8
DEFPOINTS
 62
     0
100
AcDbPoint
 10
6374.072001619017
 20
732.4176621089645
 30
0.0
  0
POINT
  5
1DDB
330
F82
100
AcDbEntity
  8
DEFPOINTS
 62
     0
100
AcDbPoint
 10
8874.072001619017
 20
732.4176621089645
 30
0.0
  0
POINT
  5
1DDC
330
F82
100
AcDbEntity
  8
DEFPOINTS
 62
     0
100
AcDbPoint
 10
8874.072001619017
 20
1663.887067986979
 30
0.0
  0
ENDBLK
  5
F8D
330
F82
100
AcDbEntity
  8
0
100
AcDbBlockEnd
  0
BLOCK
  5
F99
330
F97
100
AcDbEntity
  8
0
100
AcDbBlockBegin
  2
_DATUMFILLED
 70
     0
 10
0.0
 20
0.0
 30
0.0
  3
_DATUMFILLED
  1

  0
SOLID
  5
F98
330
F97
100
AcDbEntity
  8
0
  6
BYBLOCK
 62
     0
100
AcDbTrace
 10
0.0
 20
0.5773502700000001
 30
0.0
 11
-1.0
 21
0.0
 31
0.0
 12
0.0
 22
-0.5773502700000001
 32
0.0
 13
0.0
 23
-0.5773502700000001
 33
0.0
  0
ENDBLK
  5
F9A
330
F97
100
AcDbEntity
  8
0
100
AcDbBlockEnd
  0
BLOCK
  5
115A
330
1150
100
AcDbEntity
  8
0
100
AcDbBlockBegin
  2
*D45
 70
     1
 10
0.0
 20
0.0
 30
0.0
  3
*D45
  1

  0
LINE
  5
1DCB
330
1150
100
AcDbEntity
  8
0
 62
     0
100
AcDbLine
 10
8874.072001619017
 20
794.9176621089645
 30
0.0
 11
8874.072001619017
 21
1788.887067986979
 31
0.0
  0
LINE
  5
1DCC
330
1150
100
AcDbEntity
  8
0
 62
     0
100
AcDbLine
 10
11374.07200161901
 20
794.9176621089645
 30
0.0
 11
11374.07200161901
 21
1788.887067986979
 31
0.0
  0
LINE
  5
1DCD
330
1150
100
AcDbEntity
  8
0
 62
     0
100
AcDbLine
 10
8874.072001619017
 20
1663.887067986979
 30
0.0
 11
11374.07200161901
 21
1663.887067986979
 31
0.0
  0
INSERT
  5
1DCE
330
1150
100
AcDbEntity
  8
0
 62
     0
100
AcDbBlockReference
  2
_INTEGRAL
 10
8874.072001619017
 20
1663.887067986979
 30
0.0
 41
250.0
 42
250.0
 43
250.0
 50
180.0
  0
INSERT
  5
1DCF
330
1150
100
AcDbEntity
  8
0
 62
     0
100
AcDbBlockReference
  2
_INTEGRAL
 10
11374.07200161901
 20
1663.887067986979
 30
0.0
 41
250.0
 42
250.0
 43
250.0
  0
MTEXT
  5
1DD0
330
1150
100
AcDbEntity
  8
0
 62
     0
100
AcDbMText
 10
10124.07200161901
 20
1876.387067986979
 30
0.0
 40
300.0
 41
0.0
 71
     5
 72
     1
  1
2500
1001
ACAD
1000
MTEXTBEGIN
1070
    73
1070
     1
1070
    44
1040
1.0
1070
    74
1070
     0
1000
MTEXTEND
  0
POINT
  5
1DD1
330
1150
100
AcDbEntity
  8
DEFPOINTS
 62
     0
100
AcDbPoint
 10
8874.072001619017
 20
732.4176621089645
 30
0.0
  0
POINT
  5
1DD2
330
1150
100
AcDbEntity
  8
DEFPOINTS
 62
     0
100
AcDbPoint
 10
11374.07200161901
 20
732.4176621089645
 30
0.0
  0
POINT
  5
1DD3
330
1150
100
AcDbEntity
  8
DEFPOINTS
 62
     0
100
AcDbPoint
 10
11374.07200161901
 20
1663.887067986979
 30
0.0
  0
ENDBLK
  5
115B
330
1150
100
AcDbEntity
  8
0
100
AcDbBlockEnd
  0
BLOCK
  5
1168
330
1165
100
AcDbEntity
  8
0
100
AcDbBlockBegin
  2
_INTEGRAL
 70
     0
 10
0.0
 20
0.0
 30
0.0
  3
_INTEGRAL
  1

  0
ARC
  5
1166
330
1165
100
AcDbEntity
  8
0
  6
BYBLOCK
 62
     0
100
AcDbCircle
 10
0.44488802
 20
-0.09133463
 30
0.0
 40
0.4541666700000001
100
AcDbArc
 50
101.9999999980395
 51
167.9999999799193
  0
ARC
  5
1167
330
1165
100
AcDbEntity
  8
0
  6
BYBLOCK
 62
     0
100
AcDbCircle
 10
-0.44488802
 20
0.09133463
 30
0.0
 40
0.4541666700000001
100
AcDbArc
 50
282.0000000215427
 51
348.0000000034225
  0
ENDBLK
  5
1169
330
1165
100
AcDbEntity
  8
0
100
AcDbBlockEnd
  0
BLOCK
  5
1188
330
117E
100
AcDbEntity
  8
0
100
AcDbBlockBegin
  2
*D47
 70
     1
 10
0.0
 20
0.0
 30
0.0
  3
*D47
  1

  0
LINE
  5
1DC4
330
117E
100
AcDbEntity
  8
0
 62
     0
100
AcDbLine
 10
11374.07200161901
 20
794.9176621089645
 30
0.0
 11
11374.07200161901
 21
1788.887067986979
 31
0.0
  0
LINE
  5
1DC5
330
117E
100
AcDbEntity
  8
0
 62
     0
100
AcDbLine
 10
13874.07200161901
 20
794.9176621089645
 30
0.0
 11
13874.07200161901
 21
1788.887067986979
 31
0.0
  0
LINE
  5
1DC6
330
117E
100
AcDbEntity
  8
0
 62
     0
100
AcDbLine
 10
11374.07200161901
 20
1663.887067986979
 30
0.0
 11
13874.07200161901
 21
1663.887067986979
 31
0.0
  0
MTEXT
  5
1DC7
330
117E
100
AcDbEntity
  8
0
 62
     0
100
AcDbMText
 10
12624.07200161901
 20
1876.387067986979
 30
0.0
 40
300.0
 41
0.0
 71
     5
 72
     1
  1
2500
1001
ACAD
1000
MTEXTBEGIN
1070
    73
1070
     1
1070
    44
1040
1.0
1070
    74
1070
     0
1000
MTEXTEND
  0
POINT
  5
1DC8
330
117E
100
AcDbEntity
  8
DEFPOINTS
 62
     0
100
AcDbPoint
 10
11374.07200161901
 20
732.4176621089645
 30
0.0
  0
POINT
  5
1DC9
330
117E
100
AcDbEntity
  8
DEFPOINTS
 62
     0
100
AcDbPoint
 10
13874.07200161901
 20
732.4176621089645
 30
0.0
  0
POINT
  5
1DCA
330
117E
100
AcDbEntity
  8
DEFPOINTS
 62
     0
100
AcDbPoint
 10
13874.07200161901
 20
1663.887067986979
 30
0.0
  0
ENDBLK
  5
1189
330
117E
100
AcDbEntity
  8
0
100
AcDbBlockEnd
  0
BLOCK
  5
1194
330
1193
100
AcDbEntity
  8
0
100
AcDbBlockBegin
  2
_NONE
 70
     0
 10
0.0
 20
0.0
 30
0.0
  3
_NONE
  1

  0
ENDBLK
  5
1195
330
1193
100
AcDbEntity
  8
0
100
AcDbBlockEnd
  0
BLOCK
  5
13FD
330
13F5
100
AcDbEntity
  8
0
100
AcDbBlockBegin
  2
*D49
 70
     1
 10
0.0
 20
0.0
 30
0.0
  3
*D49
  1

  0
LINE
  5
1DDD
330
13F5
100
AcDbEntity
  8
0
 62
     0
100
AcDbLine
 10
14608.82612140059
 20
794.9176621089645
 30
0.0
 11
14608.82612140059
 21
1788.887067986979
 31
0.0
  0
LINE
  5
1DDE
330
13F5
100
AcDbEntity
  8
0
 62
     0
100
AcDbLine
 10
16108.82612140059
 20
794.9176621089645
 30
0.0
 11
16108.82612140059
 21
1788.887067986979
 31
0.0
  0
LINE
  5
1DDF
330
13F5
100
AcDbEntity
  8
0
 62
     0
100
AcDbLine
 10
14858.82612140059
 20
1663.887067986979
 30
0.0
 11
15858.82612140059
 21
1663.887067986979
 31
0.0
  0
LINE
  5
1DE0
330
13F5
100
AcDbEntity
  8
0
 62
     0
100
AcDbLine
 10
16108.82612140059
 20
1663.887067986979
 30
0.0
 11
17383.82612140059
 21
1663.887067986979
 31
0.0
  0
INSERT
  5
1DE1
330
13F5
100
AcDbEntity
  8
0
 62
     0
100
AcDbBlockReference
  2
_OPEN30
 10
14608.82612140059
 20
1663.887067986979
 30
0.0
 41
250.0
 42
250.0
 43
250.0
 50
180.0
  0
INSERT
  5
1DE2
330
13F5
100
AcDbEntity
  8
0
 62
     0
100
AcDbBlockReference
  2
_OPEN30
 10
16108.82612140059
 20
1663.887067986979
 30
0.0
 41
250.0
 42
250.0
 43
250.0
  0
MTEXT
  5
1DE3
330
13F5
100
AcDbEntity
  8
0
 62
     0
100
AcDbMText
 10
16871.32612140059
 20
1876.387067986979
 30
0.0
 40
300.0
 41
0.0
 71
     5
 72
     1
  1
1500
1001
ACAD
1000
MTEXTBEGIN
1070
    73
1070
     1
1070
    44
1040
1.0
1070
    74
1070
     0
1000
MTEXTEND
  0
POINT
  5
1DE4
330
13F5
100
AcDbEntity
  8
DEFPOINTS
 62
     0
100
AcDbPoint
 10
14608.82612140059
 20
732.4176621089645
 30
0.0
  0
POINT
  5
1DE5
330
13F5
100
AcDbEntity
  8
DEFPOINTS
 62
     0
100
AcDbPoint
 10
16108.82612140059
 20
732.4176621089645
 30
0.0
  0
POINT
  5
1DE6
330
13F5
100
AcDbEntity
  8
DEFPOINTS
 62
     0
100
AcDbPoint
 10
16108.82612140059
 20
1663.887067986979
 30
0.0
  0
ENDBLK
  5
13FE
330
13F5
100
AcDbEntity
  8
0
100
AcDbBlockEnd
  0
BLOCK
  5
1487
330
147C
100
AcDbEntity
  8
0
100
AcDbBlockBegin
  2
*D50
 70
     1
 10
0.0
 20
0.0
 30
0.0
  3
*D50
  1

  0
LINE
  5
1DB0
330
147C
100
AcDbEntity
  8
0
 62
     0
100
AcDbLine
 10
19054.68096413649
 20
794.9176621089645
 30
0.0
 11
19054.68096413649
 21
1788.887067986979
 31
0.0
  0
LINE
  5
1DB1
330
147C
100
AcDbEntity
  8
0
 62
     0
100
AcDbLine
 10
19554.68096413649
 20
794.9176621089645
 30
0.0
 11
19554.68096413649
 21
1788.887067986979
 31
0.0
  0
LINE
  5
1DB2
330
147C
100
AcDbEntity
  8
0
 62
     0
100
AcDbLine
 10
18804.68096413649
 20
1663.887067986979
 30
0.0
 11
18554.68096413649
 21
1663.887067986979
 31
0.0
  0
LINE
  5
1DB3
330
147C
100
AcDbEntity
  8
0
 62
     0
100
AcDbLine
 10
19804.68096413649
 20
1663.887067986979
 30
0.0
 11
20879.68096413649
 21
1663.887067986979
 31
0.0
  0
LINE
  5
1DB4
330
147C
100
AcDbEntity
  8
0
 62
     0
100
AcDbLine
 10
19054.68096413649
 20
1663.887067986979
 30
0.0
 11
19554.68096413649
 21
1663.887067986979
 31
0.0
  0
INSERT
  5
1DB5
330
147C
100
AcDbEntity
  8
0
 62
     0
100
AcDbBlockReference
  2
_OPEN30
 10
19054.68096413649
 20
1663.887067986979
 30
0.0
 41
250.0
 42
250.0
 43
250.0
  0
INSERT
  5
1DB6
330
147C
100
AcDbEntity
  8
0
 62
     0
100
AcDbBlockReference
  2
_OPEN30
 10
19554.68096413649
 20
1663.887067986979
 30
0.0
 41
250.0
 42
250.0
 43
250.0
 50
180.0
  0
MTEXT
  5
1DB7
330
147C
100
AcDbEntity
  8
0
 62
     0
100
AcDbMText
 10
20467.18096413649
 20
1876.387067986979
 30
0.0
 40
300.0
 41
0.0
 71
     5
 72
     1
  1
500
1001
ACAD
1000
MTEXTBEGIN
1070
    73
1070
     1
1070
    44
1040
1.0
1070
    74
1070
     0
1000
MTEXTEND
  0
POINT
  5
1DB8
330
147C
100
AcDbEntity
  8
DEFPOINTS
 62
     0
100
AcDbPoint
 10
19054.68096413649
 20
732.4176621089645
 30
0.0
  0
POINT
  5
1DB9
330
147C
100
AcDbEntity
  8
DEFPOINTS
 62
     0
100
AcDbPoint
 10
19554.68096413649
 20
732.4176621089645
 30
0.0
  0
POINT
  5
1DBA
330
147C
100
AcDbEntity
  8
DEFPOINTS
 62
     0
100
AcDbPoint
 10
19554.68096413649
 20
1663.887067986979
 30
0.0
  0
ENDBLK
  5
1488
330
147C
100
AcDbEntity
  8
0
100
AcDbBlockEnd
  0
BLOCK
  5
1576
330
156E
100
AcDbEntity
  8
0
100
AcDbBlockBegin
  2
*D51
 70
     1
 10
0.0
 20
0.0
 30
0.0
  3
*D51
  1

  0
LINE
  5
1F3A
330
156E
100
AcDbEntity
  8
0
 62
     0
100
AcDbLine
 10
21971.23629970006
 20
1700.0
 30
0.0
 11
22602.86068322082
 21
1700.0
 31
0.0
  0
LINE
  5
1F3B
330
156E
100
AcDbEntity
  8
0
 62
     0
100
AcDbLine
 10
22602.86068322082
 20
1700.0
 30
0.0
 11
22607.86068322081
 21
731.2827575619594
 31
0.0
  0
LINE
  5
1F3C
330
156E
100
AcDbEntity
  8
0
 62
     0
100
AcDbLine
 10
22607.86068322081
 20
731.2827575619594
 30
0.0
 11
24313.48568322081
 21
731.2827575619594
 31
0.0
  0
MTEXT
  5
1F3D
330
156E
100
AcDbEntity
  8
0
 62
     0
100
AcDbMText
 10
23463.48568322081
 20
881.9077575619594
 30
0.0
 40
300.0
 41
0.0
 71
     5
 72
     1
  1
1638.24
1001
ACAD
1000
MTEXTBEGIN
1070
    73
1070
     1
1070
    44
1040
1.0
1070
    74
1070
     0
1000
MTEXTEND
  0
POINT
  5
1F3E
330
156E
100
AcDbEntity
  8
DEFPOINTS
 62
     0
100
AcDbPoint
 10
21970.61129970006
 20
1700.0
 30
0.0
  0
POINT
  5
1F3F
330
156E
100
AcDbEntity
  8
DEFPOINTS
 62
     0
100
AcDbPoint
 10
22612.86068322081
 20
731.2827575619594
 30
0.0
  0
POINT
  5
1F40
330
156E
100
AcDbEntity
  8
DEFPOINTS
 62
     0
100
AcDbPoint
 10
51.46025101292298
 20
61.75531173110096
 30
0.0
  0
ENDBLK
  5
1577
330
156E
100
AcDbEntity
  8
0
100
AcDbBlockEnd
  0
BLOCK
  5
15AB
330
15A5
100
AcDbEntity
  8
0
100
AcDbBlockBegin
  2
*D52
 70
     1
 10
0.0
 20
0.0
 30
0.0
  3
*D52
  1

  0
LINE
  5
1DF5
330
15A5
100
AcDbEntity
  8
0
 62
     0
100
AcDbLine
 10
23925.7403567024
 20
682.5615222854612
 30
0.0
 11
23925.7403567024
 21
1624.772405628799
 31
0.0
  0
LINE
  5
1DF6
330
15A5
100
AcDbEntity
  8
0
 62
     0
100
AcDbLine
 10
23925.7403567024
 20
1624.772405628799
 30
0.0
 11
25157.97004022932
 21
1629.772405628798
 31
0.0
  0
LINE
  5
1DF7
330
15A5
100
AcDbEntity
  8
0
 62
     0
100
AcDbLine
 10
25157.97004022932
 20
1629.772405628798
 30
0.0
 11
25157.97004022932
 21
3735.397405628798
 31
0.0
  0
MTEXT
  5
1DF8
330
15A5
100
AcDbEntity
  8
0
 62
     0
100
AcDbMText
 10
25007.34504022932
 20
2685.397405628803
 30
0.0
 40
300.0
 41
0.0
 71
     5
 72
     1
  1
26524.29
 11
0.0000000000000001
 21
1.0
 31
0.0
1001
ACAD
1000
MTEXTBEGIN
1070
    73
1070
     1
1070
    44
1040
1.0
1070
    74
1070
     0
1000
MTEXTEND
  0
POINT
  5
1DF9
330
15A5
100
AcDbEntity
  8
DEFPOINTS
 62
     0
100
AcDbPoint
 10
23925.7403567024
 20
681.9365222854612
 30
0.0
  0
POINT
  5
1DFA
330
15A5
100
AcDbEntity
  8
DEFPOINTS
 62
     0
100
AcDbPoint
 10
25157.97004022932
 20
1634.772405628799
 30
0.0
  0
POINT
  5
1DFB
330
15A5
100
AcDbEntity
  8
DEFPOINTS
 62
     0
100
AcDbPoint
 10
-2598.548049632634
 20
0.0
 30
0.0
  0
ENDBLK
  5
15AC
330
15A5
100
AcDbEntity
  8
0
100
AcDbBlockEnd
  0
BLOCK
  5
168D
330
1683
100
AcDbEntity
  8
0
100
AcDbBlockBegin
  2
*D53
 70
     1
 10
0.0
 20
0.0
 30
0.0
  3
*D53
  1

  0
LINE
  5
181C
330
1683
100
AcDbEntity
  8
0
 62
     0
100
AcDbLine
 10
33946.83703977069
 20
19578.32468523999
 30
0.0
 11
34632.08713513241
 21
18893.07458987827
 31
0.0
  0
LINE
  5
181D
330
1683
100
AcDbEntity
  8
0
 62
     0
100
AcDbLine
 10
37482.37094570343
 20
23113.85859117272
 30
0.0
 11
38167.62104106515
 21
22428.608495811
 31
0.0
  0
LINE
  5
181E
330
1683
100
AcDbEntity
  8
0
 62
     0
100
AcDbLine
 10
34720.47548278073
 20
19158.23963282322
 30
0.0
 11
37902.45599812019
 21
22340.22014816269
 31
0.0
  0
SOLID
  5
181F
330
1683
100
AcDbEntity
  8
0
 62
     0
100
AcDbTrace
 10
34691.01270023129
 20
19187.70241537266
 30
0.0
 11
34749.93826533017
 21
19128.77685027378
 31
0.0
 12
34543.6987874841
 22
18981.46293752658
 32
0.0
 13
34543.6987874841
 23
18981.46293752658
 33
0.0
  0
SOLID
  5
1820
330
1683
100
AcDbEntity
  8
0
 62
     0
100
AcDbTrace
 10
37872.99321557076
 20
22369.68293071213
 30
0.0
 11
37931.91878066964
 21
22310.75736561325
 31
0.0
 12
38079.23269341683
 22
22516.99684345932
 32
0.0
 13
38079.23269341683
 23
22516.99684345932
 33
0.0
  0
MTEXT
  5
1821
330
1683
100
AcDbEntity
  8
0
 62
     0
100
AcDbMText
 10
36161.20554944833
 20
20899.49008149508
 30
0.0
 40
300.0
 41
0.0
 71
     5
 72
     1
  1
5000
 11
0.7071067811865476
 21
0.7071067811865475
 31
0.0
1001
ACAD
1000
MTEXTBEGIN
1070
    73
1070
     1
1070
    44
1040
1.0
1070
    74
1070
     0
1000
MTEXTEND
1000
MTEXTBEGIN
1070
    73
1070
     1
1070
    44
1040
1.0
1070
    74
1070
     0
1000
MTEXTEND
  0
POINT
  5
1822
330
1683
100
AcDbEntity
  8
DEFPOINTS
 62
     0
100
AcDbPoint
 10
33902.64286594653
 20
19622.51885906415
 30
0.0
  0
POINT
  5
1823
330
1683
100
AcDbEntity
  8
DEFPOINTS
 62
     0
100
AcDbPoint
 10
37438.17677187927
 20
23158.05276499689
 30
0.0
  0
POINT
  5
1824
330
1683
100
AcDbEntity
  8
DEFPOINTS
 62
     0
100
AcDbPoint
 10
38079.23269341683
 20
22516.99684345932
 30
0.0
  0
ENDBLK
  5
168E
330
1683
100
AcDbEntity
  8
0
100
AcDbBlockEnd
  0
BLOCK
  5
169A
330
1690
100
AcDbEntity
  8
0
100
AcDbBlockBegin
  2
*D54
 70
     1
 10
0.0
 20
0.0
 30
0.0
  3
*D54
  1

  0
LINE
  5
1825
330
1690
100
AcDbEntity
  8
0
 62
     0
100
AcDbLine
 10
36421.71077392361
 20
24262.90711060086
 30
0.0
 11
37033.39610829522
 21
24874.59244497247
 31
0.0
  0
LINE
  5
1826
330
1690
100
AcDbEntity
  8
0
 62
     0
100
AcDbLine
 10
37482.37094570343
 20
23202.24693882104
 30
0.0
 11
38094.05628007504
 21
23813.93227319265
 31
0.0
  0
LINE
  5
1827
330
1690
100
AcDbEntity
  8
0
 62
     0
100
AcDbLine
 10
37121.78445594354
 20
24609.42740202752
 30
0.0
 11
37828.89123713009
 21
23902.32062084097
 31
0.0
  0
SOLID
  5
1828
330
1690
100
AcDbEntity
  8
0
 62
     0
100
AcDbTrace
 10
37151.24723849298
 20
24638.89018457695
 30
0.0
 11
37092.3216733941
 21
24579.96461947808
 31
0.0
 12
36945.0077606469
 22
24786.20409732415
 32
0.0
 13
36945.0077606469
 23
24786.20409732415
 33
0.0
  0
SOLID
  5
1829
330
1690
100
AcDbEntity
  8
0
 62
     0
100
AcDbTrace
 10
37858.35401967953
 20
23931.7834033904
 30
0.0
 11
37799.42845458065
 21
23872.85783829153
 31
0.0
 12
38005.66793242672
 22
23725.54392554433
 32
0.0
 13
38005.66793242672
 23
23725.54392554433
 33
0.0
  0
MTEXT
  5
182A
330
1690
100
AcDbEntity
  8
0
 62
     0
100
AcDbMText
 10
37625.59803753895
 20
24406.13420243639
 30
0.0
 40
300.0
 41
0.0
 71
     5
 72
     1
  1
1500
 11
0.7071067811865476
 21
-0.7071067811865475
 31
0.0
1001
ACAD
1000
MTEXTBEGIN
1070
    73
1070
     1
1070
    44
1040
1.0
1070
    74
1070
     0
1000
MTEXTEND
1000
MTEXTBEGIN
1070
    73
1070
     1
1070
    44
1040
1.0
1070
    74
1070
     0
1000
MTEXTEND
  0
POINT
  5
182B
330
1690
100
AcDbEntity
  8
DEFPOINTS
 62
     0
100
AcDbPoint
 10
36377.51660009945
 20
24218.7129367767
 30
0.0
  0
POINT
  5
182C
330
1690
100
AcDbEntity
  8
DEFPOINTS
 62
     0
100
AcDbPoint
 10
37438.17677187927
 20
23158.05276499688
 30
0.0
  0
POINT
  5
182D
330
1690
100
AcDbEntity
  8
DEFPOINTS
 62
     0
100
AcDbPoint
 10
38005.66793242672
 20
23725.54392554433
 30
0.0
  0
ENDBLK
  5
169B
330
1690
100
AcDbEntity
  8
0
100
AcDbBlockEnd
  0
BLOCK
  5
16BA
330
16B0
100
AcDbEntity
  8
0
100
AcDbBlockBegin
  2
*D55
 70
     1
 10
0.0
 20
0.0
 30
0.0
  3
*D55
  1

  0
LINE
  5
182E
330
16B0
100
AcDbEntity
  8
0
 62
     0
100
AcDbLine
 10
34061.61755388569
 20
26900.65408367813
 30
0.0
 11
34061.61755388569
 21
25931.56410520013
 31
0.0
  0
LINE
  5
182F
330
16B0
100
AcDbEntity
  8
0
 62
     0
100
AcDbLine
 10
39061.61755388569
 20
26900.65408367813
 30
0.0
 11
39061.61755388569
 21
25931.56410520013
 31
0.0
  0
LINE
  5
1830
330
16B0
100
AcDbEntity
  8
0
 62
     0
100
AcDbLine
 10
34311.61755388569
 20
26056.56410520013
 30
0.0
 11
38811.61755388569
 21
26056.56410520013
 31
0.0
  0
SOLID
  5
1831
330
16B0
100
AcDbEntity
  8
0
 62
     0
100
AcDbTrace
 10
34311.61755388569
 20
26098.23077186679
 30
0.0
 11
34311.61755388569
 21
26014.89743853346
 31
0.0
 12
34061.61755388569
 22
26056.56410520013
 32
0.0
 13
34061.61755388569
 23
26056.56410520013
 33
0.0
  0
SOLID
  5
1832
330
16B0
100
AcDbEntity
  8
0
 62
     0
100
AcDbTrace
 10
38811.61755388569
 20
26098.23077186679
 30
0.0
 11
38811.61755388569
 21
26014.89743853346
 31
0.0
 12
39061.61755388569
 22
26056.56410520013
 32
0.0
 13
39061.61755388569
 23
26056.56410520013
 33
0.0
  0
MTEXT
  5
1833
330
16B0
100
AcDbEntity
  8
0
 62
     0
100
AcDbMText
 10
36561.61755388569
 20
26269.06410520013
 30
0.0
 40
300.0
 41
0.0
 71
     5
 72
     1
  1
5000
1001
ACAD
1000
MTEXTBEGIN
1070
    73
1070
     1
1070
    44
1040
1.0
1070
    74
1070
     0
1000
MTEXTEND
1000
MTEXTBEGIN
1070
    73
1070
     1
1070
    44
1040
1.0
1070
    74
1070
     0
1000
MTEXTEND
  0
POINT
  5
1834
330
16B0
100
AcDbEntity
  8
DEFPOINTS
 62
     0
100
AcDbPoint
 10
34061.61755388569
 20
26963.15408367813
 30
0.0
  0
POINT
  5
1835
330
16B0
100
AcDbEntity
  8
DEFPOINTS
 62
     0
100
AcDbPoint
 10
39061.61755388569
 20
26963.15408367813
 30
0.0
  0
POINT
  5
1836
330
16B0
100
AcDbEntity
  8
DEFPOINTS
 62
     0
100
AcDbPoint
 10
39061.61755388569
 20
26056.56410520013
 30
0.0
  0
ENDBLK
  5
16BB
330
16B0
100
AcDbEntity
  8
0
100
AcDbBlockEnd
  0
BLOCK
  5
16C6
330
16BC
100
AcDbEntity
  8
0
100
AcDbBlockBegin
  2
*D56
 70
     1
 10
0.0
 20
0.0
 30
0.0
  3
*D56
  1

  0
LINE
  5
1837
330
16BC
100
AcDbEntity
  8
0
 62
     0
100
AcDbLine
 10
39124.11755388569
 20
28463.15408367813
 30
0.0
 11
39989.17124965874
 21
28463.15408367813
 31
0.0
  0
LINE
  5
1838
330
16BC
100
AcDbEntity
  8
0
 62
     0
100
AcDbLine
 10
39124.11755388569
 20
26963.15408367813
 30
0.0
 11
39989.17124965874
 21
26963.15408367813
 31
0.0
  0
LINE
  5
1839
330
16BC
100
AcDbEntity
  8
0
 62
     0
100
AcDbLine
 10
39864.17124965874
 20
28213.15408367813
 30
0.0
 11
39864.17124965874
 21
27213.15408367813
 31
0.0
  0
SOLID
  5
183A
330
16BC
100
AcDbEntity
  8
0
 62
     0
100
AcDbTrace
 10
39822.50458299207
 20
28213.15408367813
 30
0.0
 11
39905.8379163254
 21
28213.15408367813
 31
0.0
 12
39864.17124965874
 22
28463.15408367813
 32
0.0
 13
39864.17124965874
 23
28463.15408367813
 33
0.0
  0
SOLID
  5
183B
330
16BC
100
AcDbEntity
  8
0
 62
     0
100
AcDbTrace
 10
39822.50458299207
 20
27213.15408367813
 30
0.0
 11
39905.8379163254
 21
27213.15408367813
 31
0.0
 12
39864.17124965874
 22
26963.15408367813
 32
0.0
 13
39864.17124965874
 23
26963.15408367813
 33
0.0
  0
MTEXT
  5
183C
330
16BC
100
AcDbEntity
  8
0
 62
     0
100
AcDbMText
 10
39651.67124965873
 20
27713.15408367814
 30
0.0
 40
300.0
 41
0.0
 71
     5
 72
     1
  1
1500
 11
0.0000000000000001
 21
1.0
 31
0.0
1001
ACAD
1000
MTEXTBEGIN
1070
    73
1070
     1
1070
    44
1040
1.0
1070
    74
1070
     0
1000
MTEXTEND
1000
MTEXTBEGIN
1070
    73
1070
     1
1070
    44
1040
1.0
1070
    74
1070
     0
1000
MTEXTEND
  0
POINT
  5
183D
330
16BC
100
AcDbEntity
  8
DEFPOINTS
 62
     0
100
AcDbPoint
 10
39061.61755388569
 20
28463.15408367813
 30
0.0
  0
POINT
  5
183E
330
16BC
100
AcDbEntity
  8
DEFPOINTS
 62
     0
100
AcDbPoint
 10
39061.61755388569
 20
26963.15408367813
 30
0.0
  0
POINT
  5
183F
330
16BC
100
AcDbEntity
  8
DEFPOINTS
 62
     0
100
AcDbPoint
 10
39864.17124965874
 20
26963.15408367813
 30
0.0
  0
ENDBLK
  5
16C7
330
16BC
100
AcDbEntity
  8
0
100
AcDbBlockEnd
  0
BLOCK
  5
1E04
330
1DFE
100
AcDbEntity
  8
0
100
AcDbBlockBegin
  2
*D57
 70
     1
 10
0.0
 20
0.0
 30
0.0
  3
*D57
  1

  0
LINE
  5
1E06
330
1DFE
100
AcDbEntity
  8
1
 62
     0
100
AcDbLine
 10
24000.0
 20
703.9890086830564
 30
0.0
 11
24000.0
 21
1656.774842974453
 31
0.0
  0
LINE
  5
1E07
330
1DFE
100
AcDbEntity
  8
1
 62
     0
100
AcDbLine
 10
24000.0
 20
1656.774842974453
 30
0.0
 11
24978.46253739796
 21
1661.774842974453
 31
0.0
  0
LINE
  5
1E08
330
1DFE
100
AcDbEntity
  8
1
 62
     0
100
AcDbLine
 10
24978.46253739796
 20
1661.774842974453
 30
0.0
 11
24978.46253739796
 21
2917.399842974453
 31
0.0
  0
MTEXT
  5
1E09
330
1DFE
100
AcDbEntity
  8
1
 62
     0
100
AcDbMText
 10
24827.83753739796
 20
2292.399842974457
 30
0.0
 40
300.0
 41
0.0
 71
     5
 72
     1
  1
24000
 11
0.0000000000000001
 21
1.0
 31
0.0
1001
ACAD
1000
MTEXTBEGIN
1070
    73
1070
     1
1070
    44
1040
1.0
1070
    74
1070
     0
1000
MTEXTEND
  0
POINT
  5
1E0A
330
1DFE
100
AcDbEntity
  8
DEFPOINTS
 62
     0
100
AcDbPoint
 10
24000.0
 20
703.3640086830565
 30
0.0
  0
POINT
  5
1E0B
330
1DFE
100
AcDbEntity
  8
DEFPOINTS
 62
     0
100
AcDbPoint
 10
24978.46253739796
 20
1666.774842974453
 30
0.0
  0
POINT
  5
1E0C
330
1DFE
100
AcDbEntity
  8
DEFPOINTS
 62
     0
100
AcDbPoint
 10
0.0
 20
0.0
 30
0.0
  0
ENDBLK
  5
1E05
330
1DFE
100
AcDbEntity
  8
0
100
AcDbBlockEnd
  0
BLOCK
  5
1E1A
330
1E0F
100
AcDbEntity
  8
0
100
AcDbBlockBegin
  2
*D58
 70
     1
 10
0.0
 20
0.0
 30
0.0
  3
*D58
  1

  0
LINE
  5
1F20
330
1E0F
100
AcDbEntity
  8
1
 62
     0
100
AcDbLine
 10
25446.29486998995
 20
794.9176621089645
 30
0.0
 11
25446.29486998995
 21
1778.666411913524
 31
0.0
  0
LINE
  5
1F21
330
1E0F
100
AcDbEntity
  8
1
 62
     0
100
AcDbLine
 10
26446.29486998995
 20
794.9176621089645
 30
0.0
 11
26446.29486998995
 21
1778.666411913524
 31
0.0
  0
LINE
  5
1F22
330
1E0F
100
AcDbEntity
  8
1
 62
     0
100
AcDbLine
 10
25696.29486998995
 20
1653.666411913524
 30
0.0
 11
26196.29486998996
 21
1653.666411913524
 31
0.0
  0
LINE
  5
1F23
330
1E0F
100
AcDbEntity
  8
1
 62
     0
100
AcDbLine
 10
26446.29486998995
 20
1653.666411913524
 30
0.0
 11
28171.29486998995
 21
1653.666411913524
 31
0.0
  0
SOLID
  5
1F24
330
1E0F
100
AcDbEntity
  8
1
 62
     0
100
AcDbTrace
 10
25696.29486998995
 20
1695.33307858019
 30
0.0
 11
25696.29486998995
 21
1611.999745246857
 31
0.0
 12
25446.29486998995
 22
1653.666411913524
 32
0.0
 13
25446.29486998995
 23
1653.666411913524
 33
0.0
  0
SOLID
  5
1F25
330
1E0F
100
AcDbEntity
  8
1
 62
     0
100
AcDbTrace
 10
26196.29486998996
 20
1695.33307858019
 30
0.0
 11
26196.29486998996
 21
1611.999745246857
 31
0.0
 12
26446.29486998995
 22
1653.666411913524
 32
0.0
 13
26446.29486998995
 23
1653.666411913524
 33
0.0
  0
MTEXT
  5
1F26
330
1E0F
100
AcDbEntity
  8
1
 62
     0
100
AcDbMText
 10
27433.79486998995
 20
1866.166411913523
 30
0.0
 40
300.0
 41
0.0
 71
     5
 72
     1
  1
<1000>
1001
ACAD
1000
MTEXTBEGIN
1070
    73
1070
     1
1070
    44
1040
1.0
1070
    74
1070
     0
1000
MTEXTEND
  0
POINT
  5
1F27
330
1E0F
100
AcDbEntity
  8
DEFPOINTS
 62
     0
100
AcDbPoint
 10
25446.29486998995
 20
732.4176621089645
 30
0.0
  0
POINT
  5
1F28
330
1E0F
100
AcDbEntity
  8
DEFPOINTS
 62
     0
100
AcDbPoint
 10
26446.29486998995
 20
732.4176621089645
 30
0.0
  0
POINT
  5
1F29
330
1E0F
100
AcDbEntity
  8
DEFPOINTS
 62
     0
100
AcDbPoint
 10
26446.29486998995
 20
1653.666411913524
 30
0.0
  0
ENDBLK
  5
1E1B
330
1E0F
100
AcDbEntity
  8
0
100
AcDbBlockEnd
  0
BLOCK
  5
1F5B
330
1F55
100
AcDbEntity
  8
0
100
AcDbBlockBegin
  2
*D59
 70
     1
 10
0.0
 20
0.0
 30
0.0
  3
*D59
  1

  0
LINE
  5
1F64
330
1F55
100
AcDbEntity
  8
1
 62
     0
100
AcDbLine
 10
21762.53289325554
 20
700.0
 30
0.0
 11
22509.7024027464
 21
700.0
 31
0.0
  0
LINE
  5
1F65
330
1F55
100
AcDbEntity
  8
1
 62
     0
100
AcDbLine
 10
22509.7024027464
 20
700.0
 30
0.0
 11
22514.7024027464
 21
1660.401028986984
 31
0.0
  0
LINE
  5
1F66
330
1F55
100
AcDbEntity
  8
1
 62
     0
100
AcDbLine
 10
22514.7024027464
 20
1660.401028986984
 30
0.0
 11
23220.3274027464
 21
1660.401028986984
 31
0.0
  0
MTEXT
  5
1F67
330
1F55
100
AcDbEntity
  8
1
 62
     0
100
AcDbMText
 10
22870.3274027464
 20
1811.026028986983
 30
0.0
 40
300.0
 41
0.0
 71
     5
 72
     1
  1
700
1001
ACAD
1000
MTEXTBEGIN
1070
    73
1070
     1
1070
    44
1040
1.0
1070
    74
1070
     0
1000
MTEXTEND
  0
POINT
  5
1F68
330
1F55
100
AcDbEntity
  8
DEFPOINTS
 62
     0
100
AcDbPoint
 10
21761.90789325554
 20
700.0
 30
0.0
  0
POINT
  5
1F69
330
1F55
100
AcDbEntity
  8
DEFPOINTS
 62
     0
100
AcDbPoint
 10
22519.7024027464
 20
1660.401028986984
 30
0.0
  0
POINT
  5
1F6A
330
1F55
100
AcDbEntity
  8
DEFPOINTS
 62
     0
100
AcDbPoint
 10
0.0
 20
0.0
 30
0.0
  0
ENDBLK
  5
1F5C
330
1F55
100
AcDbEntity
  8
0
100
AcDbBlockEnd
  0
BLOCK
  5
20E7
330
20DC
100
AcDbEntity
  8
0
100
AcDbBlockBegin
  2
*X60
 70
     1
 10
0.0
 20
0.0
 30
0.0
  3
*X60
  1

  0
LINE
  5
20DD
330
20DC
100
AcDbEntity
  8
0
 62
     0
100
AcDbLine
 10
40081.71734709665
 20
13879.05486911342
 30
0.0
 11
40498.45357200498
 21
14295.79109402177
 31
0.0
  0
LINE
  5
20DE
330
20DC
100
AcDbEntity
  8
0
 62
     0
100
AcDbLine
 10
39632.70454104319
 20
13879.05486911342
 30
0.0
 11
40498.45357200499
 21
14744.80390007522
 31
0.0
  0
LINE
  5
20DF
330
20DC
100
AcDbEntity
  8
0
 62
     0
100
AcDbLine
 10
39183.69173498973
 20
13879.05486911342
 30
0.0
 11
40498.45357200498
 21
15193.81670612868
 31
0.0
  0
LINE
  5
20E0
330
20DC
100
AcDbEntity
  8
0
 62
     0
100
AcDbLine
 10
38734.67892893628
 20
13879.05486911342
 30
0.0
 11
40498.45357200498
 21
15642.82951218213
 31
0.0
  0
LINE
  5
20E1
330
20DC
100
AcDbEntity
  8
0
 62
     0
100
AcDbLine
 10
38285.66612288281
 20
13879.05486911342
 30
0.0
 11
40285.66612288281
 21
15879.05486911342
 31
0.0
  0
LINE
  5
20E2
330
20DC
100
AcDbEntity
  8
0
 62
     0
100
AcDbLine
 10
37836.65331682936
 20
13879.05486911342
 30
0.0
 11
39836.65331682936
 21
15879.05486911342
 31
0.0
  0
LINE
  5
20E3
330
20DC
100
AcDbEntity
  8
0
 62
     0
100
AcDbLine
 10
37649.98492586595
 20
14141.39928420347
 30
0.0
 11
39387.6405107759
 21
15879.05486911342
 31
0.0
  0
LINE
  5
20E4
330
20DC
100
AcDbEntity
  8
0
 62
     0
100
AcDbLine
 10
37649.98492586595
 20
14590.41209025692
 30
0.0
 11
38938.62770472244
 21
15879.05486911342
 31
0.0
  0
LINE
  5
20E5
330
20DC
100
AcDbEntity
  8
0
 62
     0
100
AcDbLine
 10
37649.98492586595
 20
15039.42489631038
 30
0.0
 11
38489.61489866899
 21
15879.05486911342
 31
0.0
  0
LINE
  5
20E6
330
20DC
100
AcDbEntity
  8
0
 62
     0
100
AcDbLine
 10
37649.98492586595
 20
15488.43770236384
 30
0.0
 11
38040.60209261553
 21
15879.05486911342
 31
0.0
  0
ENDBLK
  5
20E8
330
20DC
100
AcDbEntity
  8
0
100
AcDbBlockEnd
  0
ENDSEC
  0
SECTION
  2
ENTITIES
  0
POLYLINE
  5
16E
330
1F
100
AcDbEntity
  8
1
 62
     0
100
AcDb2dPolyline
 66
     1
 10
0.0
 20
0.0
 30
0.0
 70
     1
  0
VERTEX
  5
20BE
330
16E
100
AcDbEntity
  8
1
 62
     0
100
AcDbVertex
100
AcDb2dVertex
 10
32841.98269416671
 20
20683.17903084397
 30
0.0
  0
VERTEX
  5
20BF
330
16E
100
AcDbEntity
  8
1
 62
     0
100
AcDbVertex
100
AcDb2dVertex
 10
36377.51660009945
 20
24218.7129367767
 30
0.0
  0
VERTEX
  5
20C0
330
16E
100
AcDbEntity
  8
1
 62
     0
100
AcDbVertex
100
AcDb2dVertex
 10
37438.17677187927
 20
23158.05276499688
 30
0.0
  0
VERTEX
  5
20C1
330
16E
100
AcDbEntity
  8
1
 62
     0
100
AcDbVertex
100
AcDb2dVertex
 10
33902.64286594653
 20
19622.51885906414
 30
0.0
  0
SEQEND
  5
20C2
330
16E
100
AcDbEntity
  8
1
 62
     0
  0
INSERT
  5
170
330
1F
100
AcDbEntity
  8
1
  6
CONTINUOUS
 62
     7
100
AcDbBlockReference
  2
*U1
 10
51.46025101292298
 20
61.75531173110096
 30
0.0
  0
TEXT
  5
171
330
1F
100
AcDbEntity
  8
1
  6
CONTINUOUS
 62
     7
100
AcDbText
 10
41.46025101292298
 20
51.75531173110096
 30
0.0
 40
1000.0
  1
A3 1/100
 41
0.5200000000000001
  7
KANJI
100
AcDbText
  0
TEXT
  5
172
330
1F
100
AcDbEntity
  8
1
100
AcDbText
 10
834.8316700276482
 20
8032.868615568695
 30
0.0
 40
500.0
  1
DOT
  7
KANJI2
100
AcDbText
  0
LINE
  5
173
330
1F
100
AcDbEntity
  8
1
100
AcDbLine
 10
834.8316700276482
 20
12032.86861556869
 30
0.0
 11
7734.450330124251
 21
12032.86861556869
 31
0.0
  0
TEXT
  5
174
330
1F
100
AcDbEntity
  8
1
100
AcDbText
 10
834.8316700276482
 20
12032.86861556869
 30
0.0
 40
500.0
  1
ByLayer(CONTINUOUS)
  7
KANJI2
100
AcDbText
  0
LINE
  5
175
330
1F
100
AcDbEntity
  8
1
  6
CONTINUOUS
100
AcDbLine
 10
834.8316700276482
 20
11032.86861556869
 30
0.0
 11
7734.450330124251
 21
11032.86861556869
 31
0.0
  0
TEXT
  5
176
330
1F
100
AcDbEntity
  8
1
100
AcDbText
 10
834.8316700276482
 20
11032.86861556869
 30
0.0
 40
500.0
  1
CONTINUOUS
  7
KANJI2
100
AcDbText
  0
TEXT
  5
177
330
1F
100
AcDbEntity
  8
1
100
AcDbText
 10
834.8316700276482
 20
10032.86861556869
 30
0.0
 40
500.0
  1
DASHDOT
  7
KANJI2
100
AcDbText
  0
LINE
  5
178
330
1F
100
AcDbEntity
  8
1
  6
DASHDOT
100
AcDbLine
 10
834.8316700276482
 20
10032.86861556869
 30
0.0
 11
7734.450330124251
 21
10032.86861556869
 31
0.0
  0
LINE
  5
179
330
1F
100
AcDbEntity
  8
1
  6
DIVIDE
100
AcDbLine
 10
834.8316700276482
 20
9032.868615568695
 30
0.0
 11
7734.450330124251
 21
9032.868615568695
 31
0.0
  0
TEXT
  5
17A
330
1F
100
AcDbEntity
  8
1
100
AcDbText
 10
834.8316700276482
 20
9032.868615568695
 30
0.0
 40
500.0
  1
DIVIDE
  7
KANJI2
100
AcDbText
  0
LINE
  5
17B
330
1F
100
AcDbEntity
  8
1
  6
DOT
100
AcDbLine
 10
834.8316700276482
 20
8032.868615568695
 30
0.0
 11
7734.450330124251
 21
8032.868615568695
 31
0.0
  0
LINE
  5
17C
330
1F
100
AcDbEntity
  8
1
  6
HIDDEN
100
AcDbLine
 10
834.8316700276482
 20
7032.868615568695
 30
0.0
 11
7734.450330124251
 21
7032.868615568695
 31
0.0
  0
TEXT
  5
17D
330
1F
100
AcDbEntity
  8
1
100
AcDbText
 10
834.8316700276482
 20
7032.868615568695
 30
0.0
 40
500.0
  1
HIDDEN
  7
KANJI2
100
AcDbText
  0
LINE
  5
17E
330
1F
100
AcDbEntity
  8
1
100
AcDbLine
 10
15709.47494670215
 20
28715.17555215312
 30
0.0
 11
15709.47494670215
 21
24182.26996797447
 31
0.0
  0
LINE
  5
17F
330
1F
100
AcDbEntity
  8
1
100
AcDbLine
 10
17116.41234094919
 20
28715.17555215312
 30
0.0
 11
17116.41234094919
 21
24182.26996797447
 31
0.0
  0
MTEXT
  5
180
330
1F
100
AcDbEntity
  8
1
100
AcDbMText
 10
17116.41234094919
 20
28715.17555215312
 30
0.0
 40
500.0
 41
4532.9056
 71
     1
 72
     1
  1
２行の\Pマルチテキスト
  7
KANJI4
 11
-0.0000000000000002
 21
-1.0
 31
0.0
1001
ACAD
1000
MTEXTBEGIN
1070
    73
1070
     1
1070
    44
1040
1.0
1070
    74
1070
     0
1000
MTEXTEND
1000
MTEXTBEGIN
1070
    73
1070
     1
1070
    44
1040
1.0
1070
    74
1070
     0
1000
MTEXTEND
1000
MTEXTBEGIN
1070
    73
1070
     1
1070
    44
1040
1.0
1070
    74
1070
     0
1000
MTEXTEND
  0
LINE
  5
181
330
1F
100
AcDbEntity
  8
1
100
AcDbLine
 10
17116.41234094919
 20
28715.17555215312
 30
0.0
 11
15709.47494670215
 21
28715.17555215312
 31
0.0
  0
LINE
  5
182
330
1F
100
AcDbEntity
  8
1
100
AcDbLine
 10
15709.47494670215
 20
24182.26996797447
 30
0.0
 11
17116.41234094919
 21
24182.26996797447
 31
0.0
  0
TEXT
  5
183
330
1F
100
AcDbEntity
  8
1
100
AcDbText
 10
8432.910636263391
 20
12032.86861556869
 30
0.0
 40
500.0
  1
ByLayer(White/Black)
  7
KANJI2
100
AcDbText
  0
LINE
  5
184
330
1F
100
AcDbEntity
  8
1
 62
     1
100
AcDbLine
 10
8432.910636263391
 20
11032.86861556869
 30
0.0
 11
15332.52929635998
 21
11032.86861556869
 31
0.0
  0
LINE
  5
185
330
1F
100
AcDbEntity
  8
1
100
AcDbLine
 10
8432.910636263391
 20
12032.86861556869
 30
0.0
 11
15332.52929635998
 21
12032.86861556869
 31
0.0
  0
LINE
  5
186
330
1F
100
AcDbEntity
  8
1
 62
     2
100
AcDbLine
 10
8432.910636263391
 20
10032.86861556869
 30
0.0
 11
15332.52929635998
 21
10032.86861556869
 31
0.0
  0
LINE
  5
187
330
1F
100
AcDbEntity
  8
1
 62
     3
100
AcDbLine
 10
8432.910636263391
 20
9032.868615568695
 30
0.0
 11
15332.52929635998
 21
9032.868615568695
 31
0.0
  0
LINE
  5
188
330
1F
100
AcDbEntity
  8
1
 62
     4
100
AcDbLine
 10
8432.910636263391
 20
8032.868615568695
 30
0.0
 11
15332.52929635998
 21
8032.868615568695
 31
0.0
  0
LINE
  5
189
330
1F
100
AcDbEntity
  8
1
 62
   113
100
AcDbLine
 10
8432.910636263391
 20
7032.868615568695
 30
0.0
 11
15332.52929635998
 21
7032.868615568695
 31
0.0
  0
TEXT
  5
18A
330
1F
100
AcDbEntity
  8
1
 62
     2
100
AcDbText
 10
8432.910636263391
 20
10032.86861556869
 30
0.0
 40
500.0
  1
Yellow
  7
KANJI2
100
AcDbText
  0
TEXT
  5
18B
330
1F
100
AcDbEntity
  8
1
 62
   113
100
AcDbText
 10
8432.910636263391
 20
7032.868615568695
 30
0.0
 40
500.0
  1
パレット113
  7
KANJI2
100
AcDbText
  0
TEXT
  5
18C
330
1F
100
AcDbEntity
  8
1
 62
     4
100
AcDbText
 10
8432.910636263391
 20
8032.868615568695
 30
0.0
 40
500.0
  1
Cyan
  7
KANJI2
100
AcDbText
  0
TEXT
  5
18D
330
1F
100
AcDbEntity
  8
1
 62
     3
100
AcDbText
 10
8432.910636263391
 20
9032.868615568695
 30
0.0
 40
500.0
  1
Green
  7
KANJI2
100
AcDbText
  0
TEXT
  5
18E
330
1F
100
AcDbEntity
  8
1
 62
     1
100
AcDbText
 10
8432.910636263391
 20
11032.86861556869
 30
0.0
 40
500.0
  1
Red
  7
KANJI2
100
AcDbText
  0
TEXT
  5
18F
330
1F
100
AcDbEntity
  8
1
100
AcDbText
 10
26269.84838325862
 20
28715.17555215314
 30
0.0
 40
500.0
  1
ＭＳゴシック上中心
 50
270.0
  7
KANJI4
 72
     1
 11
26769.84838325862
 21
25791.31768413283
 31
0.0
100
AcDbText
 73
     3
  0
LINE
  5
190
330
1F
100
AcDbEntity
  8
1
100
AcDbLine
 10
18739.86399912308
 20
23517.2060090059
 30
0.0
 11
18739.86399912308
 21
28715.17555215312
 31
0.0
  0
TEXT
  5
191
330
1F
100
AcDbEntity
  8
1
100
AcDbText
 10
17739.86399912307
 20
28715.17555215312
 30
0.0
 40
1000.0
  1
幅を確認
 50
270.0
  7
KANJI4
 72
     2
 11
17739.86399912307
 21
23517.20600900591
 31
0.0
100
AcDbText
  0
LINE
  5
192
330
1F
100
AcDbEntity
  8
1
100
AcDbLine
 10
17739.86399912307
 20
28715.17555215312
 30
0.0
 11
17739.86399912307
 21
23517.2060090059
 31
0.0
  0
LINE
  5
193
330
1F
100
AcDbEntity
  8
1
100
AcDbLine
 10
19769.84838325862
 20
28715.17555215312
 30
0.0
 11
19769.84838325863
 21
23517.21008007191
 31
0.0
  0
LINE
  5
194
330
1F
100
AcDbEntity
  8
1
100
AcDbLine
 10
19269.84838325862
 20
28715.17555215312
 30
0.0
 11
19269.84838325863
 21
23517.2100800719
 31
0.0
  0
TEXT
  5
195
330
1F
100
AcDbEntity
  8
1
100
AcDbText
 10
19269.84838325862
 20
28715.17555215312
 30
0.0
 40
500.0
  1
ＭＳゴシック右下
 50
270.0
  7
KANJI4
 72
     2
 11
19178.47782488299
 21
23517.20600900591
 31
0.0
100
AcDbText
 73
     1
  0
LINE
  5
196
330
1F
100
AcDbEntity
  8
1
100
AcDbLine
 10
20269.84838325863
 20
28715.17555215312
 30
0.0
 11
20269.84838325863
 21
22867.4659227115
 31
0.0
  0
LINE
  5
197
330
1F
100
AcDbEntity
  8
1
100
AcDbLine
 10
20769.84838325862
 20
28715.17555215312
 30
0.0
 11
20769.84838325863
 21
22867.4659227115
 31
0.0
  0
TEXT
  5
198
330
1F
100
AcDbEntity
  8
1
100
AcDbText
 10
20269.84838325863
 20
28715.17555215313
 30
0.0
 40
500.0
  1
ＭＳゴシック下中心
 50
270.0
  7
KANJI4
 72
     1
 11
20178.47782488299
 21
25791.31768413282
 31
0.0
100
AcDbText
 73
     1
  0
LINE
  5
199
330
1F
100
AcDbEntity
  8
1
100
AcDbLine
 10
21269.84838325862
 20
28715.17555215312
 30
0.0
 11
21269.84838325863
 21
23517.21008007191
 31
0.0
  0
LINE
  5
19A
330
1F
100
AcDbEntity
  8
1
100
AcDbLine
 10
21769.84838325862
 20
28715.17555215312
 30
0.0
 11
21769.84838325863
 21
23517.21008007192
 31
0.0
  0
TEXT
  5
19B
330
1F
100
AcDbEntity
  8
1
100
AcDbText
 10
21269.84838325862
 20
28715.17555215312
 30
0.0
 40
500.0
  1
ＭＳゴシック左下
 50
270.0
  7
KANJI4
 11
21178.47782488299
 21
28715.17555215312
 31
0.0
100
AcDbText
 73
     1
  0
LINE
  5
19C
330
1F
100
AcDbEntity
  8
1
100
AcDbLine
 10
22769.84838325862
 20
28715.17555215313
 30
0.0
 11
22769.84838325863
 21
22867.46592271151
 31
0.0
  0
LINE
  5
19D
330
1F
100
AcDbEntity
  8
1
100
AcDbLine
 10
22269.84838325862
 20
28715.17555215313
 30
0.0
 11
22269.84838325864
 21
22867.46592271151
 31
0.0
  0
TEXT
  5
19E
330
1F
100
AcDbEntity
  8
1
100
AcDbText
 10
22269.84838325863
 20
28715.17555215312
 30
0.0
 40
500.0
  1
ＭＳゴシック右中央
 50
270.0
  7
KANJI4
 72
     2
 11
22519.84838325863
 21
22867.45981611252
 31
0.0
100
AcDbText
 73
     2
  0
LINE
  5
19F
330
1F
100
AcDbEntity
  8
1
100
AcDbLine
 10
23769.84838325862
 20
28715.17555215313
 30
0.0
 11
23769.84838325863
 21
23517.21008007191
 31
0.0
  0
LINE
  5
1A0
330
1F
100
AcDbEntity
  8
1
100
AcDbLine
 10
23269.84838325862
 20
28715.17555215313
 30
0.0
 11
23269.84838325863
 21
23517.21008007191
 31
0.0
  0
TEXT
  5
1A1
330
1F
100
AcDbEntity
  8
1
100
AcDbText
 10
23269.84838325862
 20
28715.17555215313
 30
0.0
 40
500.0
  1
ＭＳゴシック中央
 50
270.0
  7
KANJI4
 72
     1
 11
23519.84838325862
 21
26116.19078057952
 31
0.0
100
AcDbText
 73
     2
  0
LINE
  5
1A2
330
1F
100
AcDbEntity
  8
1
100
AcDbLine
 10
24769.84838325862
 20
28715.17555215313
 30
0.0
 11
24769.84838325863
 21
22867.46592271151
 31
0.0
  0
LINE
  5
1A3
330
1F
100
AcDbEntity
  8
1
100
AcDbLine
 10
24269.84838325862
 20
28715.17555215313
 30
0.0
 11
24269.84838325863
 21
22867.46592271151
 31
0.0
  0
TEXT
  5
1A4
330
1F
100
AcDbEntity
  8
1
100
AcDbText
 10
24269.84838325862
 20
28715.17555215313
 30
0.0
 40
500.0
  1
ＭＳゴシック左中央
 50
270.0
  7
KANJI4
 11
24519.84838325862
 21
28715.17555215313
 31
0.0
100
AcDbText
 73
     2
  0
LINE
  5
1A5
330
1F
100
AcDbEntity
  8
1
100
AcDbLine
 10
25269.84838325863
 20
28715.17555215314
 30
0.0
 11
25269.84838325863
 21
23517.21008007191
 31
0.0
  0
LINE
  5
1A6
330
1F
100
AcDbEntity
  8
1
100
AcDbLine
 10
25769.84838325862
 20
28715.17555215314
 30
0.0
 11
25769.84838325863
 21
23517.21008007191
 31
0.0
  0
TEXT
  5
1A7
330
1F
100
AcDbEntity
  8
1
100
AcDbText
 10
25269.84838325863
 20
28715.17555215314
 30
0.0
 40
500.0
  1
ＭＳゴシック右上
 50
270.0
  7
KANJI4
 72
     2
 11
25769.84838325863
 21
23517.20600900593
 31
0.0
100
AcDbText
 73
     3
  0
LINE
  5
1A8
330
1F
100
AcDbEntity
  8
1
100
AcDbLine
 10
26269.84838325862
 20
28715.17555215314
 30
0.0
 11
26269.84838325864
 21
22867.46592271151
 31
0.0
  0
LINE
  5
1A9
330
1F
100
AcDbEntity
  8
1
100
AcDbLine
 10
26769.84838325862
 20
28715.17555215314
 30
0.0
 11
26769.84838325863
 21
22867.46592271152
 31
0.0
  0
LINE
  5
1AA
330
1F
100
AcDbEntity
  8
1
100
AcDbLine
 10
17739.86399912307
 20
28715.17555215312
 30
0.0
 11
18739.86399912307
 21
28715.17555215312
 31
0.0
  0
LINE
  5
1AB
330
1F
100
AcDbEntity
  8
1
100
AcDbLine
 10
19269.84838325862
 20
28715.17555215312
 30
0.0
 11
19769.84838325862
 21
28715.17555215312
 31
0.0
  0
LINE
  5
1AC
330
1F
100
AcDbEntity
  8
1
100
AcDbLine
 10
20269.84838325863
 20
28715.17555215312
 30
0.0
 11
20769.84838325862
 21
28715.17555215312
 31
0.0
  0
LINE
  5
1AD
330
1F
100
AcDbEntity
  8
1
100
AcDbLine
 10
21269.84838325862
 20
28715.17555215312
 30
0.0
 11
21769.84838325862
 21
28715.17555215312
 31
0.0
  0
LINE
  5
1AE
330
1F
100
AcDbEntity
  8
1
100
AcDbLine
 10
24269.84838325862
 20
28715.17555215313
 30
0.0
 11
24769.84838325862
 21
28715.17555215313
 31
0.0
  0
LINE
  5
1AF
330
1F
100
AcDbEntity
  8
1
100
AcDbLine
 10
23269.84838325862
 20
28715.17555215313
 30
0.0
 11
23769.84838325862
 21
28715.17555215313
 31
0.0
  0
LINE
  5
1B0
330
1F
100
AcDbEntity
  8
1
100
AcDbLine
 10
22269.84838325862
 20
28715.17555215313
 30
0.0
 11
22769.84838325862
 21
28715.17555215313
 31
0.0
  0
LINE
  5
1B1
330
1F
100
AcDbEntity
  8
1
100
AcDbLine
 10
25269.84838325863
 20
28715.17555215314
 30
0.0
 11
25769.84838325862
 21
28715.17555215314
 31
0.0
  0
LINE
  5
1B2
330
1F
100
AcDbEntity
  8
1
100
AcDbLine
 10
26269.84838325862
 20
28715.17555215314
 30
0.0
 11
26769.84838325862
 21
28715.17555215314
 31
0.0
  0
LINE
  5
1B3
330
1F
100
AcDbEntity
  8
1
100
AcDbLine
 10
19269.84838325862
 20
28065.42895215312
 30
0.0
 11
19769.84838325862
 21
28065.42895215312
 31
0.0
  0
LINE
  5
1B4
330
1F
100
AcDbEntity
  8
1
100
AcDbLine
 10
19269.84838325862
 20
27415.68235215312
 30
0.0
 11
19769.84838325862
 21
27415.68235215312
 31
0.0
  0
LINE
  5
1B5
330
1F
100
AcDbEntity
  8
1
100
AcDbLine
 10
19269.84838325862
 20
26765.93575215312
 30
0.0
 11
19769.84838325862
 21
26765.93575215312
 31
0.0
  0
LINE
  5
1B6
330
1F
100
AcDbEntity
  8
1
100
AcDbLine
 10
19269.84838325862
 20
26116.18915215312
 30
0.0
 11
19769.84838325862
 21
26116.18915215312
 31
0.0
  0
LINE
  5
1B7
330
1F
100
AcDbEntity
  8
1
100
AcDbLine
 10
19269.84838325862
 20
25466.44255215312
 30
0.0
 11
19769.84838325862
 21
25466.44255215312
 31
0.0
  0
LINE
  5
1B8
330
1F
100
AcDbEntity
  8
1
100
AcDbLine
 10
20269.84838325863
 20
27415.68235215312
 30
0.0
 11
20769.84838325862
 21
27415.68235215312
 31
0.0
  0
LINE
  5
1B9
330
1F
100
AcDbEntity
  8
1
100
AcDbLine
 10
20269.84838325863
 20
28065.42895215312
 30
0.0
 11
20769.84838325862
 21
28065.42895215312
 31
0.0
  0
LINE
  5
1BA
330
1F
100
AcDbEntity
  8
1
100
AcDbLine
 10
20269.84838325863
 20
26765.93575215312
 30
0.0
 11
20769.84838325862
 21
26765.93575215312
 31
0.0
  0
LINE
  5
1BB
330
1F
100
AcDbEntity
  8
1
100
AcDbLine
 10
21269.84838325862
 20
27415.68235215312
 30
0.0
 11
21769.84838325862
 21
27415.68235215313
 31
0.0
  0
LINE
  5
1BC
330
1F
100
AcDbEntity
  8
1
100
AcDbLine
 10
21269.84838325862
 20
28065.42895215312
 30
0.0
 11
21769.84838325862
 21
28065.42895215312
 31
0.0
  0
LINE
  5
1BD
330
1F
100
AcDbEntity
  8
1
100
AcDbLine
 10
21269.84838325862
 20
26765.93575215312
 30
0.0
 11
21769.84838325862
 21
26765.93575215312
 31
0.0
  0
LINE
  5
1BE
330
1F
100
AcDbEntity
  8
1
100
AcDbLine
 10
20269.84838325863
 20
26116.18915215313
 30
0.0
 11
20769.84838325862
 21
26116.18915215313
 31
0.0
  0
LINE
  5
1BF
330
1F
100
AcDbEntity
  8
1
100
AcDbLine
 10
20269.84838325863
 20
25466.44255215312
 30
0.0
 11
20769.84838325862
 21
25466.44255215312
 31
0.0
  0
LINE
  5
1C0
330
1F
100
AcDbEntity
  8
1
100
AcDbLine
 10
21269.84838325862
 20
26116.18915215313
 30
0.0
 11
21769.84838325862
 21
26116.18915215313
 31
0.0
  0
LINE
  5
1C1
330
1F
100
AcDbEntity
  8
1
100
AcDbLine
 10
21269.84838325862
 20
25466.44255215313
 30
0.0
 11
21769.84838325862
 21
25466.44255215313
 31
0.0
  0
LINE
  5
1C2
330
1F
100
AcDbEntity
  8
1
100
AcDbLine
 10
19269.84838325863
 20
24816.69839479271
 30
0.0
 11
19269.84838325863
 21
24816.69839479271
 31
0.0
  0
LINE
  5
1C3
330
1F
100
AcDbEntity
  8
1
100
AcDbLine
 10
19269.84838325863
 20
24816.69839479271
 30
0.0
 11
19769.84838325863
 21
24816.69839479272
 31
0.0
  0
LINE
  5
1C4
330
1F
100
AcDbEntity
  8
1
100
AcDbLine
 10
19269.84838325864
 20
24166.95423743231
 30
0.0
 11
19269.84838325864
 21
24166.95423743231
 31
0.0
  0
LINE
  5
1C5
330
1F
100
AcDbEntity
  8
1
100
AcDbLine
 10
19269.84838325863
 20
24166.95423743231
 30
0.0
 11
19769.84838325863
 21
24166.95423743231
 31
0.0
  0
LINE
  5
1C6
330
1F
100
AcDbEntity
  8
1
100
AcDbLine
 10
19269.84838325864
 20
23517.2100800719
 30
0.0
 11
19269.84838325864
 21
23517.2100800719
 31
0.0
  0
LINE
  5
1C7
330
1F
100
AcDbEntity
  8
1
100
AcDbLine
 10
19269.84838325863
 20
23517.2100800719
 30
0.0
 11
19769.84838325863
 21
23517.21008007191
 31
0.0
  0
LINE
  5
1C9
330
1F
100
AcDbEntity
  8
1
100
AcDbLine
 10
20269.84838325863
 20
24816.69839479272
 30
0.0
 11
20769.84838325863
 21
24816.69839479272
 31
0.0
  0
LINE
  5
1CA
330
1F
100
AcDbEntity
  8
1
100
AcDbLine
 10
20269.84838325863
 20
24166.95423743231
 30
0.0
 11
20769.84838325863
 21
24166.95423743232
 31
0.0
  0
LINE
  5
1CB
330
1F
100
AcDbEntity
  8
1
100
AcDbLine
 10
20269.84838325863
 20
24816.69839479272
 30
0.0
 11
20269.84838325863
 21
24816.69839479272
 31
0.0
  0
LINE
  5
1CC
330
1F
100
AcDbEntity
  8
1
100
AcDbLine
 10
20269.84838325863
 20
24166.95423743231
 30
0.0
 11
20269.84838325863
 21
24166.95423743231
 31
0.0
  0
LINE
  5
1CD
330
1F
100
AcDbEntity
  8
1
100
AcDbLine
 10
20269.84838325863
 20
23517.21008007191
 30
0.0
 11
20769.84838325863
 21
23517.21008007191
 31
0.0
  0
LINE
  5
1CE
330
1F
100
AcDbEntity
  8
1
100
AcDbLine
 10
20269.84838325864
 20
23517.21008007191
 30
0.0
 11
20269.84838325864
 21
23517.21008007191
 31
0.0
  0
LINE
  5
1CF
330
1F
100
AcDbEntity
  8
1
100
AcDbLine
 10
21269.84838325863
 20
24816.69839479272
 30
0.0
 11
21769.84838325863
 21
24816.69839479272
 31
0.0
  0
LINE
  5
1D0
330
1F
100
AcDbEntity
  8
1
100
AcDbLine
 10
21269.84838325863
 20
24166.95423743232
 30
0.0
 11
21769.84838325863
 21
24166.95423743232
 31
0.0
  0
LINE
  5
1D1
330
1F
100
AcDbEntity
  8
1
100
AcDbLine
 10
21269.84838325863
 20
24816.69839479272
 30
0.0
 11
21269.84838325863
 21
24816.69839479272
 31
0.0
  0
LINE
  5
1D2
330
1F
100
AcDbEntity
  8
1
100
AcDbLine
 10
21269.84838325864
 20
24166.95423743232
 30
0.0
 11
21269.84838325864
 21
24166.95423743232
 31
0.0
  0
LINE
  5
1D3
330
1F
100
AcDbEntity
  8
1
100
AcDbLine
 10
21269.84838325863
 20
23517.21008007191
 30
0.0
 11
21769.84838325863
 21
23517.21008007192
 31
0.0
  0
LINE
  5
1D4
330
1F
100
AcDbEntity
  8
1
100
AcDbLine
 10
21269.84838325864
 20
23517.21008007191
 30
0.0
 11
21269.84838325864
 21
23517.21008007191
 31
0.0
  0
LINE
  5
1D5
330
1F
100
AcDbEntity
  8
1
100
AcDbLine
 10
20269.84838325863
 20
22867.4659227115
 30
0.0
 11
20769.84838325863
 21
22867.4659227115
 31
0.0
  0
LINE
  5
1D6
330
1F
100
AcDbEntity
  8
1
100
AcDbLine
 10
20269.84838325864
 20
22867.4659227115
 30
0.0
 11
20269.84838325864
 21
22867.4659227115
 31
0.0
  0
LINE
  5
1D7
330
1F
100
AcDbEntity
  8
1
100
AcDbLine
 10
24269.84838325862
 20
25466.44255215313
 30
0.0
 11
24769.84838325862
 21
25466.44255215313
 31
0.0
  0
LINE
  5
1D8
330
1F
100
AcDbEntity
  8
1
100
AcDbLine
 10
24269.84838325862
 20
26116.18915215313
 30
0.0
 11
24769.84838325862
 21
26116.18915215313
 31
0.0
  0
LINE
  5
1D9
330
1F
100
AcDbEntity
  8
1
100
AcDbLine
 10
24269.84838325862
 20
26765.93575215313
 30
0.0
 11
24769.84838325862
 21
26765.93575215313
 31
0.0
  0
LINE
  5
1DA
330
1F
100
AcDbEntity
  8
1
100
AcDbLine
 10
24269.84838325862
 20
27415.68235215313
 30
0.0
 11
24769.84838325862
 21
27415.68235215313
 31
0.0
  0
LINE
  5
1DB
330
1F
100
AcDbEntity
  8
1
100
AcDbLine
 10
24269.84838325862
 20
28065.42895215313
 30
0.0
 11
24769.84838325862
 21
28065.42895215313
 31
0.0
  0
LINE
  5
1DC
330
1F
100
AcDbEntity
  8
1
100
AcDbLine
 10
23269.84838325862
 20
26765.93575215313
 30
0.0
 11
23769.84838325862
 21
26765.93575215313
 31
0.0
  0
LINE
  5
1DD
330
1F
100
AcDbEntity
  8
1
100
AcDbLine
 10
23269.84838325862
 20
27415.68235215313
 30
0.0
 11
23769.84838325862
 21
27415.68235215313
 31
0.0
  0
LINE
  5
1DE
330
1F
100
AcDbEntity
  8
1
100
AcDbLine
 10
23269.84838325862
 20
28065.42895215313
 30
0.0
 11
23769.84838325862
 21
28065.42895215313
 31
0.0
  0
LINE
  5
1DF
330
1F
100
AcDbEntity
  8
1
100
AcDbLine
 10
22269.84838325862
 20
27415.68235215313
 30
0.0
 11
22769.84838325862
 21
27415.68235215313
 31
0.0
  0
LINE
  5
1E0
330
1F
100
AcDbEntity
  8
1
100
AcDbLine
 10
22269.84838325862
 20
28065.42895215312
 30
0.0
 11
22769.84838325862
 21
28065.42895215313
 31
0.0
  0
LINE
  5
1E1
330
1F
100
AcDbEntity
  8
1
100
AcDbLine
 10
22269.84838325862
 20
26765.93575215313
 30
0.0
 11
22769.84838325862
 21
26765.93575215313
 31
0.0
  0
LINE
  5
1E2
330
1F
100
AcDbEntity
  8
1
100
AcDbLine
 10
23269.84838325862
 20
25466.44255215312
 30
0.0
 11
23769.84838325862
 21
25466.44255215312
 31
0.0
  0
LINE
  5
1E3
330
1F
100
AcDbEntity
  8
1
100
AcDbLine
 10
23269.84838325862
 20
26116.18915215313
 30
0.0
 11
23769.84838325862
 21
26116.18915215313
 31
0.0
  0
LINE
  5
1E4
330
1F
100
AcDbEntity
  8
1
100
AcDbLine
 10
22269.84838325862
 20
26116.18915215313
 30
0.0
 11
22769.84838325862
 21
26116.18915215313
 31
0.0
  0
LINE
  5
1E5
330
1F
100
AcDbEntity
  8
1
100
AcDbLine
 10
22269.84838325862
 20
25466.44255215313
 30
0.0
 11
22769.84838325862
 21
25466.44255215313
 31
0.0
  0
LINE
  5
1E6
330
1F
100
AcDbEntity
  8
1
100
AcDbLine
 10
25269.84838325863
 20
26765.93575215314
 30
0.0
 11
25769.84838325862
 21
26765.93575215314
 31
0.0
  0
LINE
  5
1E7
330
1F
100
AcDbEntity
  8
1
100
AcDbLine
 10
25269.84838325863
 20
27415.68235215313
 30
0.0
 11
25769.84838325862
 21
27415.68235215313
 31
0.0
  0
LINE
  5
1E8
330
1F
100
AcDbEntity
  8
1
100
AcDbLine
 10
25269.84838325863
 20
28065.42895215313
 30
0.0
 11
25769.84838325862
 21
28065.42895215313
 31
0.0
  0
LINE
  5
1E9
330
1F
100
AcDbEntity
  8
1
100
AcDbLine
 10
26269.84838325862
 20
28065.42895215314
 30
0.0
 11
26769.84838325862
 21
28065.42895215314
 31
0.0
  0
LINE
  5
1EA
330
1F
100
AcDbEntity
  8
1
100
AcDbLine
 10
26269.84838325862
 20
27415.68235215314
 30
0.0
 11
26769.84838325862
 21
27415.68235215314
 31
0.0
  0
LINE
  5
1EB
330
1F
100
AcDbEntity
  8
1
100
AcDbLine
 10
26269.84838325862
 20
26765.93575215314
 30
0.0
 11
26769.84838325862
 21
26765.93575215314
 31
0.0
  0
LINE
  5
1EC
330
1F
100
AcDbEntity
  8
1
100
AcDbLine
 10
25269.84838325863
 20
25466.44255215313
 30
0.0
 11
25769.84838325862
 21
25466.44255215313
 31
0.0
  0
LINE
  5
1ED
330
1F
100
AcDbEntity
  8
1
100
AcDbLine
 10
25269.84838325863
 20
26116.18915215313
 30
0.0
 11
25769.84838325862
 21
26116.18915215313
 31
0.0
  0
LINE
  5
1EE
330
1F
100
AcDbEntity
  8
1
100
AcDbLine
 10
26269.84838325862
 20
26116.18915215314
 30
0.0
 11
26769.84838325862
 21
26116.18915215314
 31
0.0
  0
LINE
  5
1EF
330
1F
100
AcDbEntity
  8
1
100
AcDbLine
 10
26269.84838325862
 20
25466.44255215313
 30
0.0
 11
26769.84838325862
 21
25466.44255215313
 31
0.0
  0
LINE
  5
1F0
330
1F
100
AcDbEntity
  8
1
100
AcDbLine
 10
24269.84838325863
 20
22867.46592271151
 30
0.0
 11
24769.84838325863
 21
22867.46592271151
 31
0.0
  0
LINE
  5
1F1
330
1F
100
AcDbEntity
  8
1
100
AcDbLine
 10
24269.84838325863
 20
23517.21008007191
 30
0.0
 11
24769.84838325863
 21
23517.21008007191
 31
0.0
  0
LINE
  5
1F2
330
1F
100
AcDbEntity
  8
1
100
AcDbLine
 10
24269.84838325863
 20
24166.95423743231
 30
0.0
 11
24769.84838325863
 21
24166.95423743232
 31
0.0
  0
LINE
  5
1F3
330
1F
100
AcDbEntity
  8
1
100
AcDbLine
 10
24269.84838325863
 20
24816.69839479272
 30
0.0
 11
24769.84838325863
 21
24816.69839479272
 31
0.0
  0
LINE
  5
1F4
330
1F
100
AcDbEntity
  8
1
100
AcDbLine
 10
23269.84838325863
 20
23517.21008007191
 30
0.0
 11
23769.84838325863
 21
23517.21008007191
 31
0.0
  0
LINE
  5
1F5
330
1F
100
AcDbEntity
  8
1
100
AcDbLine
 10
23269.84838325863
 20
24166.95423743231
 30
0.0
 11
23769.84838325863
 21
24166.95423743231
 31
0.0
  0
LINE
  5
1F6
330
1F
100
AcDbEntity
  8
1
100
AcDbLine
 10
23269.84838325863
 20
24816.69839479271
 30
0.0
 11
23769.84838325863
 21
24816.69839479272
 31
0.0
  0
LINE
  5
1F7
330
1F
100
AcDbEntity
  8
1
100
AcDbLine
 10
22269.84838325863
 20
24166.95423743232
 30
0.0
 11
22769.84838325863
 21
24166.95423743232
 31
0.0
  0
LINE
  5
1F8
330
1F
100
AcDbEntity
  8
1
100
AcDbLine
 10
22269.84838325863
 20
24816.69839479272
 30
0.0
 11
22769.84838325863
 21
24816.69839479272
 31
0.0
  0
LINE
  5
1F9
330
1F
100
AcDbEntity
  8
1
100
AcDbLine
 10
22269.84838325863
 20
24816.69839479272
 30
0.0
 11
22269.84838325863
 21
24816.69839479272
 31
0.0
  0
LINE
  5
1FA
330
1F
100
AcDbEntity
  8
1
100
AcDbLine
 10
22269.84838325864
 20
24166.95423743232
 30
0.0
 11
22269.84838325864
 21
24166.95423743232
 31
0.0
  0
LINE
  5
1FB
330
1F
100
AcDbEntity
  8
1
100
AcDbLine
 10
23269.84838325863
 20
24816.69839479271
 30
0.0
 11
23269.84838325863
 21
24816.69839479271
 31
0.0
  0
LINE
  5
1FC
330
1F
100
AcDbEntity
  8
1
100
AcDbLine
 10
23269.84838325864
 20
24166.95423743231
 30
0.0
 11
23269.84838325864
 21
24166.95423743231
 31
0.0
  0
LINE
  5
1FD
330
1F
100
AcDbEntity
  8
1
100
AcDbLine
 10
22269.84838325863
 20
23517.21008007192
 30
0.0
 11
22769.84838325863
 21
23517.21008007192
 31
0.0
  0
LINE
  5
1FE
330
1F
100
AcDbEntity
  8
1
100
AcDbLine
 10
22269.84838325864
 20
23517.21008007192
 30
0.0
 11
22269.84838325864
 21
23517.21008007192
 31
0.0
  0
LINE
  5
1FF
330
1F
100
AcDbEntity
  8
1
100
AcDbLine
 10
23269.84838325864
 20
23517.21008007191
 30
0.0
 11
23269.84838325864
 21
23517.21008007191
 31
0.0
  0
LINE
  5
200
330
1F
100
AcDbEntity
  8
1
100
AcDbLine
 10
24269.84838325863
 20
24816.69839479272
 30
0.0
 11
24269.84838325863
 21
24816.69839479272
 31
0.0
  0
LINE
  5
201
330
1F
100
AcDbEntity
  8
1
100
AcDbLine
 10
24269.84838325863
 20
24166.95423743231
 30
0.0
 11
24269.84838325863
 21
24166.95423743231
 31
0.0
  0
LINE
  5
202
330
1F
100
AcDbEntity
  8
1
100
AcDbLine
 10
24269.84838325864
 20
23517.21008007191
 30
0.0
 11
24269.84838325864
 21
23517.21008007191
 31
0.0
  0
LINE
  5
203
330
1F
100
AcDbEntity
  8
1
100
AcDbLine
 10
22269.84838325864
 20
22867.46592271151
 30
0.0
 11
22769.84838325863
 21
22867.46592271151
 31
0.0
  0
LINE
  5
204
330
1F
100
AcDbEntity
  8
1
100
AcDbLine
 10
22269.84838325864
 20
22867.46592271151
 30
0.0
 11
22269.84838325864
 21
22867.46592271151
 31
0.0
  0
LINE
  5
205
330
1F
100
AcDbEntity
  8
1
100
AcDbLine
 10
24269.84838325864
 20
22867.46592271151
 30
0.0
 11
24269.84838325864
 21
22867.46592271151
 31
0.0
  0
LINE
  5
206
330
1F
100
AcDbEntity
  8
1
100
AcDbLine
 10
25269.84838325863
 20
23517.21008007191
 30
0.0
 11
25769.84838325863
 21
23517.21008007191
 31
0.0
  0
LINE
  5
207
330
1F
100
AcDbEntity
  8
1
100
AcDbLine
 10
25269.84838325863
 20
24166.95423743232
 30
0.0
 11
25769.84838325863
 21
24166.95423743232
 31
0.0
  0
LINE
  5
208
330
1F
100
AcDbEntity
  8
1
100
AcDbLine
 10
25269.84838325863
 20
24816.69839479272
 30
0.0
 11
25769.84838325863
 21
24816.69839479273
 31
0.0
  0
LINE
  5
209
330
1F
100
AcDbEntity
  8
1
100
AcDbLine
 10
25269.84838325863
 20
24816.69839479272
 30
0.0
 11
25269.84838325863
 21
24816.69839479272
 31
0.0
  0
LINE
  5
20A
330
1F
100
AcDbEntity
  8
1
100
AcDbLine
 10
25269.84838325863
 20
24166.95423743232
 30
0.0
 11
25269.84838325863
 21
24166.95423743232
 31
0.0
  0
LINE
  5
20B
330
1F
100
AcDbEntity
  8
1
100
AcDbLine
 10
25269.84838325864
 20
23517.21008007191
 30
0.0
 11
25269.84838325864
 21
23517.21008007191
 31
0.0
  0
LINE
  5
20C
330
1F
100
AcDbEntity
  8
1
100
AcDbLine
 10
26269.84838325863
 20
24816.69839479273
 30
0.0
 11
26269.84838325863
 21
24816.69839479273
 31
0.0
  0
LINE
  5
20D
330
1F
100
AcDbEntity
  8
1
100
AcDbLine
 10
26269.84838325863
 20
24816.69839479273
 30
0.0
 11
26769.84838325863
 21
24816.69839479273
 31
0.0
  0
LINE
  5
20E
330
1F
100
AcDbEntity
  8
1
100
AcDbLine
 10
26269.84838325864
 20
24166.95423743232
 30
0.0
 11
26269.84838325864
 21
24166.95423743232
 31
0.0
  0
LINE
  5
20F
330
1F
100
AcDbEntity
  8
1
100
AcDbLine
 10
26269.84838325863
 20
24166.95423743232
 30
0.0
 11
26769.84838325863
 21
24166.95423743232
 31
0.0
  0
LINE
  5
210
330
1F
100
AcDbEntity
  8
1
100
AcDbLine
 10
26269.84838325864
 20
23517.21008007191
 30
0.0
 11
26269.84838325864
 21
23517.21008007191
 31
0.0
  0
LINE
  5
211
330
1F
100
AcDbEntity
  8
1
100
AcDbLine
 10
26269.84838325863
 20
23517.21008007191
 30
0.0
 11
26769.84838325863
 21
23517.21008007192
 31
0.0
  0
LINE
  5
212
330
1F
100
AcDbEntity
  8
1
100
AcDbLine
 10
26269.84838325864
 20
22867.46592271151
 30
0.0
 11
26269.84838325864
 21
22867.46592271151
 31
0.0
  0
LINE
  5
213
330
1F
100
AcDbEntity
  8
1
100
AcDbLine
 10
26269.84838325864
 20
22867.46592271151
 30
0.0
 11
26769.84838325863
 21
22867.46592271152
 31
0.0
  0
LINE
  5
214
330
1F
100
AcDbEntity
  8
1
100
AcDbLine
 10
30269.84838325863
 20
28715.17555215314
 30
0.0
 11
30269.84838325863
 21
22867.46592271152
 31
0.0
  0
LINE
  5
215
330
1F
100
AcDbEntity
  8
1
100
AcDbLine
 10
30769.84838325862
 20
28715.17555215314
 30
0.0
 11
30769.84838325863
 21
22867.46592271152
 31
0.0
  0
TEXT
  5
216
330
1F
100
AcDbEntity
  8
1
100
AcDbText
 10
30269.84838325864
 20
28715.17555215314
 30
0.0
 40
500.0
  1
ＭＳゴシックフィット
 50
270.0
 41
0.9000000000000005
  7
KANJI4
 72
     5
 11
30269.84838325864
 21
22867.45981611253
 31
0.0
100
AcDbText
  0
LINE
  5
217
330
1F
100
AcDbEntity
  8
1
100
AcDbLine
 10
27769.84838325862
 20
28715.17555215314
 30
0.0
 11
27769.84838325863
 21
23517.21008007192
 31
0.0
  0
LINE
  5
218
330
1F
100
AcDbEntity
  8
1
100
AcDbLine
 10
27269.84838325862
 20
28715.17555215314
 30
0.0
 11
27269.84838325863
 21
23517.21008007192
 31
0.0
  0
TEXT
  5
219
330
1F
100
AcDbEntity
  8
1
100
AcDbText
 10
27269.84838325862
 20
28715.17555215314
 30
0.0
 40
500.0
  1
ＭＳゴシック左上
 50
270.0
  7
KANJI4
 11
27769.84838325862
 21
28715.17555215314
 31
0.0
100
AcDbText
 73
     3
  0
TEXT
  5
21A
330
1F
100
AcDbEntity
  8
1
100
AcDbText
 10
28263.50320559365
 20
28715.17555215314
 30
0.0
 40
500.0
  1
ＭＳゴシック中央
 50
270.0
  7
KANJI4
 72
     4
 11
28504.61995686268
 21
26116.19078057954
 31
0.0
100
AcDbText
  0
LINE
  5
21B
330
1F
100
AcDbEntity
  8
1
100
AcDbLine
 10
28769.84838325862
 20
28715.17555215314
 30
0.0
 11
28769.84838325863
 21
23517.21008007193
 31
0.0
  0
LINE
  5
21C
330
1F
100
AcDbEntity
  8
1
100
AcDbLine
 10
28269.84838325862
 20
28715.17555215314
 30
0.0
 11
28269.84838325863
 21
23517.21008007192
 31
0.0
  0
TEXT
  5
21D
330
1F
100
AcDbEntity
  8
1
100
AcDbText
 10
29269.84838325863
 20
28715.17555215314
 30
0.0
 40
500.0
  1
ＭＳゴシック右寄せ
 50
270.0
  7
KANJI4
 72
     2
 11
29269.84838325863
 21
22867.45981611253
 31
0.0
100
AcDbText
  0
LINE
  5
21E
330
1F
100
AcDbEntity
  8
1
100
AcDbLine
 10
29769.84838325862
 20
28715.17555215314
 30
0.0
 11
29769.84838325863
 21
22867.46592271152
 31
0.0
  0
LINE
  5
21F
330
1F
100
AcDbEntity
  8
1
100
AcDbLine
 10
29269.84838325862
 20
28715.17555215314
 30
0.0
 11
29269.84838325863
 21
22867.46592271152
 31
0.0
  0
LINE
  5
220
330
1F
100
AcDbEntity
  8
1
100
AcDbLine
 10
31769.84838325862
 20
28715.17555215314
 30
0.0
 11
31769.84838325862
 21
24816.69839479273
 31
0.0
  0
TEXT
  5
221
330
1F
100
AcDbEntity
  8
1
100
AcDbText
 10
31269.84838325862
 20
28715.17555215314
 30
0.0
 40
500.0
  1
ＭＳゴシック
 50
270.0
  7
KANJI4
100
AcDbText
  0
LINE
  5
222
330
1F
100
AcDbEntity
  8
1
100
AcDbLine
 10
31269.84838325862
 20
28715.17555215314
 30
0.0
 11
31269.84838325863
 21
24816.69839479273
 31
0.0
  0
LINE
  5
223
330
1F
100
AcDbEntity
  8
1
100
AcDbLine
 10
31269.84838325862
 20
28715.17555215314
 30
0.0
 11
31769.84838325862
 21
28715.17555215314
 31
0.0
  0
LINE
  5
224
330
1F
100
AcDbEntity
  8
1
100
AcDbLine
 10
27269.84838325862
 20
28715.17555215314
 30
0.0
 11
27769.84838325862
 21
28715.17555215314
 31
0.0
  0
LINE
  5
225
330
1F
100
AcDbEntity
  8
1
100
AcDbLine
 10
28269.84838325862
 20
28715.17555215314
 30
0.0
 11
28769.84838325862
 21
28715.17555215314
 31
0.0
  0
LINE
  5
226
330
1F
100
AcDbEntity
  8
1
100
AcDbLine
 10
30269.84838325863
 20
28715.17555215314
 30
0.0
 11
30769.84838325862
 21
28715.17555215314
 31
0.0
  0
LINE
  5
227
330
1F
100
AcDbEntity
  8
1
100
AcDbLine
 10
29269.84838325862
 20
28715.17555215314
 30
0.0
 11
29769.84838325862
 21
28715.17555215314
 31
0.0
  0
LINE
  5
228
330
1F
100
AcDbEntity
  8
1
100
AcDbLine
 10
31269.84838325862
 20
25466.44255215314
 30
0.0
 11
31769.84838325862
 21
25466.44255215314
 31
0.0
  0
LINE
  5
229
330
1F
100
AcDbEntity
  8
1
100
AcDbLine
 10
31269.84838325862
 20
26116.18915215314
 30
0.0
 11
31769.84838325862
 21
26116.18915215314
 31
0.0
  0
LINE
  5
22A
330
1F
100
AcDbEntity
  8
1
100
AcDbLine
 10
31269.84838325862
 20
26765.93575215314
 30
0.0
 11
31769.84838325862
 21
26765.93575215314
 31
0.0
  0
LINE
  5
22B
330
1F
100
AcDbEntity
  8
1
100
AcDbLine
 10
31269.84838325863
 20
24816.69839479273
 30
0.0
 11
31769.84838325862
 21
24816.69839479273
 31
0.0
  0
LINE
  5
22C
330
1F
100
AcDbEntity
  8
1
100
AcDbLine
 10
31269.84838325862
 20
27415.68235215314
 30
0.0
 11
31769.84838325862
 21
27415.68235215314
 31
0.0
  0
LINE
  5
22D
330
1F
100
AcDbEntity
  8
1
100
AcDbLine
 10
31269.84838325862
 20
28065.42895215314
 30
0.0
 11
31769.84838325862
 21
28065.42895215314
 31
0.0
  0
LINE
  5
22E
330
1F
100
AcDbEntity
  8
1
100
AcDbLine
 10
27269.84838325862
 20
27415.68235215314
 30
0.0
 11
27769.84838325862
 21
27415.68235215314
 31
0.0
  0
LINE
  5
22F
330
1F
100
AcDbEntity
  8
1
100
AcDbLine
 10
27269.84838325862
 20
28065.42895215314
 30
0.0
 11
27769.84838325862
 21
28065.42895215314
 31
0.0
  0
LINE
  5
230
330
1F
100
AcDbEntity
  8
1
100
AcDbLine
 10
27269.84838325862
 20
26765.93575215314
 30
0.0
 11
27769.84838325862
 21
26765.93575215314
 31
0.0
  0
LINE
  5
231
330
1F
100
AcDbEntity
  8
1
100
AcDbLine
 10
28269.84838325862
 20
27415.68235215314
 30
0.0
 11
28769.84838325862
 21
27415.68235215314
 31
0.0
  0
LINE
  5
232
330
1F
100
AcDbEntity
  8
1
100
AcDbLine
 10
28269.84838325862
 20
28065.42895215314
 30
0.0
 11
28769.84838325862
 21
28065.42895215314
 31
0.0
  0
LINE
  5
233
330
1F
100
AcDbEntity
  8
1
100
AcDbLine
 10
28269.84838325862
 20
26765.93575215314
 30
0.0
 11
28769.84838325862
 21
26765.93575215314
 31
0.0
  0
LINE
  5
234
330
1F
100
AcDbEntity
  8
1
100
AcDbLine
 10
27269.84838325862
 20
26116.18915215314
 30
0.0
 11
27769.84838325862
 21
26116.18915215314
 31
0.0
  0
LINE
  5
235
330
1F
100
AcDbEntity
  8
1
100
AcDbLine
 10
27269.84838325862
 20
25466.44255215314
 30
0.0
 11
27769.84838325862
 21
25466.44255215314
 31
0.0
  0
LINE
  5
236
330
1F
100
AcDbEntity
  8
1
100
AcDbLine
 10
28269.84838325862
 20
26116.18915215314
 30
0.0
 11
28769.84838325862
 21
26116.18915215314
 31
0.0
  0
LINE
  5
237
330
1F
100
AcDbEntity
  8
1
100
AcDbLine
 10
28269.84838325862
 20
25466.44255215314
 30
0.0
 11
28769.84838325862
 21
25466.44255215314
 31
0.0
  0
LINE
  5
238
330
1F
100
AcDbEntity
  8
1
100
AcDbLine
 10
29269.84838325862
 20
27415.68235215314
 30
0.0
 11
29769.84838325862
 21
27415.68235215314
 31
0.0
  0
LINE
  5
239
330
1F
100
AcDbEntity
  8
1
100
AcDbLine
 10
29269.84838325862
 20
28065.42895215314
 30
0.0
 11
29769.84838325862
 21
28065.42895215314
 31
0.0
  0
LINE
  5
23A
330
1F
100
AcDbEntity
  8
1
100
AcDbLine
 10
29269.84838325862
 20
26765.93575215314
 30
0.0
 11
29769.84838325862
 21
26765.93575215314
 31
0.0
  0
LINE
  5
23B
330
1F
100
AcDbEntity
  8
1
100
AcDbLine
 10
29269.84838325862
 20
26116.18915215314
 30
0.0
 11
29769.84838325862
 21
26116.18915215314
 31
0.0
  0
LINE
  5
23C
330
1F
100
AcDbEntity
  8
1
100
AcDbLine
 10
29269.84838325862
 20
25466.44255215314
 30
0.0
 11
29769.84838325862
 21
25466.44255215314
 31
0.0
  0
LINE
  5
23D
330
1F
100
AcDbEntity
  8
1
100
AcDbLine
 10
27269.84838325863
 20
24166.95423743233
 30
0.0
 11
27769.84838325863
 21
24166.95423743233
 31
0.0
  0
LINE
  5
23E
330
1F
100
AcDbEntity
  8
1
100
AcDbLine
 10
27269.84838325862
 20
24816.69839479273
 30
0.0
 11
27769.84838325863
 21
24816.69839479273
 31
0.0
  0
LINE
  5
23F
330
1F
100
AcDbEntity
  8
1
100
AcDbLine
 10
27269.84838325863
 20
24816.69839479273
 30
0.0
 11
27269.84838325863
 21
24816.69839479273
 31
0.0
  0
LINE
  5
240
330
1F
100
AcDbEntity
  8
1
100
AcDbLine
 10
27269.84838325863
 20
24166.95423743233
 30
0.0
 11
27269.84838325863
 21
24166.95423743233
 31
0.0
  0
LINE
  5
241
330
1F
100
AcDbEntity
  8
1
100
AcDbLine
 10
27269.84838325863
 20
23517.21008007192
 30
0.0
 11
27769.84838325863
 21
23517.21008007192
 31
0.0
  0
LINE
  5
242
330
1F
100
AcDbEntity
  8
1
100
AcDbLine
 10
27269.84838325864
 20
23517.21008007192
 30
0.0
 11
27269.84838325864
 21
23517.21008007192
 31
0.0
  0
LINE
  5
243
330
1F
100
AcDbEntity
  8
1
100
AcDbLine
 10
28269.84838325862
 20
24816.69839479273
 30
0.0
 11
28769.84838325863
 21
24816.69839479273
 31
0.0
  0
LINE
  5
244
330
1F
100
AcDbEntity
  8
1
100
AcDbLine
 10
28269.84838325863
 20
24166.95423743233
 30
0.0
 11
28769.84838325863
 21
24166.95423743233
 31
0.0
  0
LINE
  5
245
330
1F
100
AcDbEntity
  8
1
100
AcDbLine
 10
28269.84838325863
 20
24816.69839479273
 30
0.0
 11
28269.84838325863
 21
24816.69839479273
 31
0.0
  0
LINE
  5
246
330
1F
100
AcDbEntity
  8
1
100
AcDbLine
 10
28269.84838325863
 20
24166.95423743233
 30
0.0
 11
28269.84838325863
 21
24166.95423743233
 31
0.0
  0
LINE
  5
247
330
1F
100
AcDbEntity
  8
1
100
AcDbLine
 10
28269.84838325863
 20
23517.21008007192
 30
0.0
 11
28769.84838325863
 21
23517.21008007193
 31
0.0
  0
LINE
  5
248
330
1F
100
AcDbEntity
  8
1
100
AcDbLine
 10
28269.84838325864
 20
23517.21008007192
 30
0.0
 11
28269.84838325864
 21
23517.21008007192
 31
0.0
  0
LINE
  5
249
330
1F
100
AcDbEntity
  8
1
100
AcDbLine
 10
29269.84838325863
 20
24166.95423743233
 30
0.0
 11
29769.84838325863
 21
24166.95423743233
 31
0.0
  0
LINE
  5
24A
330
1F
100
AcDbEntity
  8
1
100
AcDbLine
 10
29269.84838325862
 20
24816.69839479273
 30
0.0
 11
29769.84838325862
 21
24816.69839479273
 31
0.0
  0
LINE
  5
24B
330
1F
100
AcDbEntity
  8
1
100
AcDbLine
 10
29269.84838325863
 20
24816.69839479273
 30
0.0
 11
29269.84838325863
 21
24816.69839479273
 31
0.0
  0
LINE
  5
24C
330
1F
100
AcDbEntity
  8
1
100
AcDbLine
 10
29269.84838325863
 20
24166.95423743233
 30
0.0
 11
29269.84838325863
 21
24166.95423743233
 31
0.0
  0
LINE
  5
24D
330
1F
100
AcDbEntity
  8
1
100
AcDbLine
 10
29269.84838325863
 20
23517.21008007192
 30
0.0
 11
29769.84838325863
 21
23517.21008007193
 31
0.0
  0
LINE
  5
24E
330
1F
100
AcDbEntity
  8
1
100
AcDbLine
 10
29269.84838325863
 20
23517.21008007192
 30
0.0
 11
29269.84838325863
 21
23517.21008007192
 31
0.0
  0
LINE
  5
24F
330
1F
100
AcDbEntity
  8
1
100
AcDbLine
 10
31269.84838325863
 20
24816.69839479273
 30
0.0
 11
31269.84838325863
 21
24816.69839479273
 31
0.0
  0
LINE
  5
250
330
1F
100
AcDbEntity
  8
1
100
AcDbLine
 10
30269.84838325863
 20
22867.46592271152
 30
0.0
 11
30769.84838325863
 21
22867.46592271152
 31
0.0
  0
LINE
  5
251
330
1F
100
AcDbEntity
  8
1
100
AcDbLine
 10
29269.84838325863
 20
22867.46592271152
 30
0.0
 11
29769.84838325863
 21
22867.46592271152
 31
0.0
  0
LINE
  5
252
330
1F
100
AcDbEntity
  8
1
100
AcDbLine
 10
29269.84838325864
 20
22867.46592271152
 30
0.0
 11
29269.84838325864
 21
22867.46592271152
 31
0.0
  0
LINE
  5
253
330
1F
100
AcDbEntity
  8
1
100
AcDbLine
 10
30269.84838325864
 20
22867.46592271152
 30
0.0
 11
30269.84838325864
 21
22867.46592271152
 31
0.0
  0
DIMENSION
  5
2AA
330
1F
100
AcDbEntity
  8
0
100
AcDbDimension
  2
*D2
 10
36093.92934893674
 20
24502.3001879383
 30
0.0
 11
34175.90220497137
 21
22884.79342597035
 31
0.0
 70
    32
  3
ISO-25
100
AcDbAlignedDimension
 13
32841.98269416671
 23
20683.17903084397
 33
0.0
 14
36377.51660009945
 24
24218.7129367767
 34
0.0
 50
45.00000000011105
100
AcDbRotatedDimension
1001
ACAD
1000
DSTYLE
1002
{
1070
    40
1040
100.0
1002
}
  0
DIMENSION
  5
2B7
330
1F
100
AcDbEntity
  8
0
100
AcDbDimension
  2
*D3
 10
33272.3182317855
 20
18992.19422490555
 30
0.0
 11
32892.24833689904
 21
19672.78450179834
 31
0.0
 70
    32
  3
ISO-25
100
AcDbAlignedDimension
 13
32841.98269416671
 23
20683.17903084397
 33
0.0
 14
33902.64286594653
 24
19622.51885906414
 34
0.0
 50
134.9999999998889
100
AcDbRotatedDimension
1001
ACAD
1000
DSTYLE
1002
{
1070
    40
1040
100.0
1002
}
  0
TEXT
  5
2C4
330
1F
100
AcDbEntity
  8
1
 62
     0
100
AcDbText
 10
33472.53829550178
 20
20318.35664042155
 30
0.0
 40
500.0
  1
四角形と長さ寸法
 50
45.0
  7
KANJI
100
AcDbText
  0
DIMENSION
  5
2C5
330
1F
100
AcDbEntity
  8
0
100
AcDbDimension
  2
*D4
 10
39061.61755388569
 20
28864.20702038776
 30
0.0
 11
36561.61755388569
 21
29076.70702038776
 31
0.0
 70
    32
  3
ISO-25
100
AcDbAlignedDimension
 13
34061.61755388569
 23
28463.15408367813
 33
0.0
 14
39061.61755388569
 24
28463.15408367813
 34
0.0
100
AcDbRotatedDimension
1001
ACAD
1000
DSTYLE
1002
{
1070
    40
1040
100.0
1002
}
  0
POLYLINE
  5
2C6
330
1F
100
AcDbEntity
  8
1
 62
     0
100
AcDb2dPolyline
 66
     1
 10
0.0
 20
0.0
 30
0.0
 70
     1
  0
VERTEX
  5
20C3
330
2C6
100
AcDbEntity
  8
1
 62
     0
100
AcDbVertex
100
AcDb2dVertex
 10
34061.61755388569
 20
28463.15408367813
 30
0.0
  0
VERTEX
  5
20C4
330
2C6
100
AcDbEntity
  8
1
 62
     0
100
AcDbVertex
100
AcDb2dVertex
 10
39061.61755388569
 20
28463.15408367813
 30
0.0
  0
VERTEX
  5
20C5
330
2C6
100
AcDbEntity
  8
1
 62
     0
100
AcDbVertex
100
AcDb2dVertex
 10
39061.61755388569
 20
26963.15408367813
 30
0.0
  0
VERTEX
  5
20C6
330
2C6
100
AcDbEntity
  8
1
 62
     0
100
AcDbVertex
100
AcDb2dVertex
 10
34061.61755388569
 20
26963.15408367813
 30
0.0
  0
SEQEND
  5
20C7
330
2C6
100
AcDbEntity
  8
1
 62
     0
  0
DIMENSION
  5
2C7
330
1F
100
AcDbEntity
  8
0
100
AcDbDimension
  2
*D5
 10
33170.20390755901
 20
26963.15408367813
 30
0.0
 11
32957.70390755901
 21
27713.15408367814
 31
0.0
 70
    32
  3
ISO-25
100
AcDbAlignedDimension
 13
34061.61755388569
 23
28463.15408367813
 33
0.0
 14
34061.61755388569
 24
26963.15408367813
 34
0.0
 50
90.0
100
AcDbRotatedDimension
1001
ACAD
1000
DSTYLE
1002
{
1070
    40
1040
100.0
1002
}
  0
LINE
  5
328
330
1F
100
AcDbEntity
  8
0
100
AcDbLine
 10
33902.64286594653
 20
19622.51885906414
 30
0.0
 11
37726.65216029226
 21
19622.51885906414
 31
0.0
  0
DIMENSION
  5
329
330
1F
100
AcDbEntity
  8
0
100
AcDbDimension
  2
*D6
 10
33902.64286594653
 20
19622.51885906414
 30
0.0
 11
37464.84376220628
 21
21098.03078219252
 31
0.0
 70
    34
  3
ISO-25
100
AcDb2LineAngularDimension
 13
33902.64286594653
 23
19622.51885906414
 33
0.0
 14
37726.65216029226
 24
19622.51885906414
 34
0.0
 15
37438.17677187927
 25
23158.05276499688
 35
0.0
 16
37421.70235453924
 26
20565.44800714964
 36
0.0
1001
ACAD
1000
DSTYLE
1002
{
1070
   271
1070
     0
1070
   271
1070
     0
1070
    40
1040
100.0
1070
    79
1070
     2
1070
   271
1070
     0
1002
}
  0
CIRCLE
  5
371
330
1F
100
AcDbEntity
  8
0
100
AcDbCircle
 10
33971.7196360845
 20
15041.48750671567
 30
0.0
 40
1808.760328193126
  0
DIMENSION
  5
373
330
1F
100
AcDbEntity
  8
0
100
AcDbDimension
  2
*D7
 10
33971.7196360845
 20
13041.48750671567
 30
0.0
 11
33759.21963608449
 21
18228.98750671567
 31
0.0
 70
    35
  3
ISO-25
100
AcDbDiametricDimension
 15
33971.7196360845
 25
17041.48750671567
 35
0.0
 40
0.0
1001
ACAD
1000
DSTYLE
1002
{
1070
    40
1040
100.0
1070
   288
1070
     1
1002
}
  0
DIMENSION
  5
37C
330
1F
100
AcDbEntity
  8
0
100
AcDbDimension
  2
*D8
 10
33971.71963608451
 20
15041.48750671567
 30
0.0
 11
36541.49406661355
 21
16939.26828335956
 31
0.0
 70
    36
  3
ISO-25
100
AcDbRadialDimension
 15
35656.02561149646
 25
16119.9648505628
 35
0.0
 40
0.0
1001
ACAD
1000
DSTYLE
1002
{
1070
    40
1040
100.0
1070
   288
1070
     1
1002
}
  0
ELLIPSE
  5
3A0
330
1F
100
AcDbEntity
  8
0
100
AcDbEllipse
 10
33971.7196360845
 20
15041.48750671567
 30
0.0
 11
1808.760328193126
 21
0.0000000000032901
 31
0.0
210
0.0
220
0.0
230
1.0
 40
0.5528648458355768
 41
0.0
 42
6.283185307179586
  0
LINE
  5
3EB
330
1F
100
AcDbEntity
  8
0
100
AcDbLine
 10
32162.95930789137
 20
10886.19105157217
 30
0.0
 11
40162.95930789137
 21
10886.19105157217
 31
0.0
  0
LINE
  5
3EC
330
1F
100
AcDbEntity
  8
0
100
AcDbLine
 10
32162.95930789137
 20
11886.19105157217
 30
0.0
 11
32162.95930789137
 21
9886.191051572176
 31
0.0
  0
LINE
  5
3EE
330
1F
100
AcDbEntity
  8
0
100
AcDbLine
 10
33162.95930789137
 20
11886.19105157217
 30
0.0
 11
33162.95930789137
 21
9886.191051572176
 31
0.0
  0
LINE
  5
3EF
330
1F
100
AcDbEntity
  8
0
100
AcDbLine
 10
34162.95930789137
 20
11886.19105157217
 30
0.0
 11
34162.95930789137
 21
9886.191051572176
 31
0.0
  0
LINE
  5
3F0
330
1F
100
AcDbEntity
  8
0
100
AcDbLine
 10
32162.95930789137
 20
11886.19105157217
 30
0.0
 11
40162.95930789137
 21
11886.19105157217
 31
0.0
  0
LINE
  5
3F1
330
1F
100
AcDbEntity
  8
0
100
AcDbLine
 10
32162.95930789137
 20
9886.191051572176
 30
0.0
 11
40162.95930789137
 21
9886.191051572176
 31
0.0
  0
LINE
  5
3F2
330
1F
100
AcDbEntity
  8
0
100
AcDbLine
 10
35162.95930789137
 20
11886.19105157217
 30
0.0
 11
35162.95930789137
 21
9886.191051572176
 31
0.0
  0
LINE
  5
3F3
330
1F
100
AcDbEntity
  8
0
100
AcDbLine
 10
36162.95930789137
 20
11886.19105157217
 30
0.0
 11
36162.95930789137
 21
9886.191051572176
 31
0.0
  0
LINE
  5
3F4
330
1F
100
AcDbEntity
  8
0
100
AcDbLine
 10
37162.95930789137
 20
11886.19105157217
 30
0.0
 11
37162.95930789137
 21
9886.191051572176
 31
0.0
  0
LINE
  5
3F5
330
1F
100
AcDbEntity
  8
0
100
AcDbLine
 10
38162.95930789137
 20
11886.19105157217
 30
0.0
 11
38162.95930789137
 21
9886.191051572176
 31
0.0
  0
LINE
  5
3F7
330
1F
100
AcDbEntity
  8
0
100
AcDbLine
 10
40162.95930789137
 20
11886.19105157217
 30
0.0
 11
40162.95930789137
 21
9886.191051572176
 31
0.0
  0
LINE
  5
3F8
330
1F
100
AcDbEntity
  8
0
100
AcDbLine
 10
39162.95930789137
 20
11886.19105157217
 30
0.0
 11
39162.95930789137
 21
9886.191051572176
 31
0.0
  0
SPLINE
  5
3FB
330
1F
100
AcDbEntity
  8
0
100
AcDbSpline
210
0.0
220
0.0
230
1.0
 70
     8
 71
     3
 72
    15
 73
    11
 74
     9
 42
0.0000000001
 43
0.0000000001
 44
0.0000000001
 40
0.0
 40
0.0
 40
0.0
 40
0.0
 40
1414.213562373095
 40
2828.42712474619
 40
4242.640687119284
 40
5656.85424949238
 40
7071.067811865475
 40
8485.281374238573
 40
9899.494936611667
 40
11279.38235200375
 40
11279.38235200375
 40
11279.38235200375
 40
11279.38235200375
 10
32162.95930789137
 20
10886.19105157217
 30
0.0
 10
32496.29186790955
 20
11386.19109007647
 30
0.0
 10
33162.9569879459
 20
12386.19116708506
 30
0.0
 10
34162.96858767325
 20
10886.19058952059
 30
0.0
 10
35162.92450870933
 20
9386.192784265595
 30
0.0
 10
36163.08922483765
 20
10886.18458285008
 30
0.0
 10
37162.47443928828
 20
12386.21519376713
 30
0.0
 10
38164.76886535743
 20
10886.10095151444
 30
0.0
 10
39148.1844766345
 20
9398.659985702362
 30
0.0
 10
39827.48280742876
 20
10361.51438572329
 30
0.0
 10
40162.95930789137
 20
10837.0271463632
 30
0.0
 11
32162.95930789137
 21
10886.19105157217
 31
0.0
 11
33162.95930789137
 21
11886.19105157217
 31
0.0
 11
34162.95930789137
 21
10886.19105157217
 31
0.0
 11
35162.95930789137
 21
9886.191051572176
 31
0.0
 11
36162.95930789137
 21
10886.19105157217
 31
0.0
 11
37162.95930789137
 21
11886.19105157217
 31
0.0
 11
38162.95930789137
 21
10886.19105157217
 31
0.0
 11
39162.95930789137
 21
9886.191051572176
 31
0.0
 11
40162.95930789137
 21
10837.0271463632
 31
0.0
  0
TEXT
  5
3FC
330
1F
100
AcDbEntity
  8
0
100
AcDbText
 10
32162.95930789137
 20
11886.19105157217
 30
0.0
 40
500.0
  1
スプライン曲線
  7
KANJI
100
AcDbText
  0
LINE
  5
40C
330
1F
100
AcDbEntity
  8
0
100
AcDbLine
 10
32162.95930789137
 20
8789.515827027434
 30
0.0
 11
40162.95930789137
 21
8789.515827027434
 31
0.0
  0
LINE
  5
40D
330
1F
100
AcDbEntity
  8
0
100
AcDbLine
 10
32162.95930789137
 20
6789.515827027433
 30
0.0
 11
40118.791045835
 21
6789.515827027426
 31
0.0
  0
POLYLINE
  5
40E
330
1F
100
AcDbEntity
  8
0
100
AcDb2dPolyline
 66
     1
 10
0.0
 20
0.0
 30
0.0
  0
VERTEX
  5
20D1
330
40E
100
AcDbEntity
  8
0
100
AcDbVertex
100
AcDb2dVertex
 10
32162.95930789137
 20
6789.515827027435
 30
0.0
  0
VERTEX
  5
20D2
330
40E
100
AcDbEntity
  8
0
100
AcDbVertex
100
AcDb2dVertex
 10
34144.21740571502
 20
8789.515827027434
 30
0.0
  0
VERTEX
  5
20D3
330
40E
100
AcDbEntity
  8
0
100
AcDbVertex
100
AcDb2dVertex
 10
36162.95930789137
 20
6789.515827027435
 30
0.0
  0
VERTEX
  5
20D4
330
40E
100
AcDbEntity
  8
0
100
AcDbVertex
100
AcDb2dVertex
 10
38110.78354696862
 20
8789.515827027434
 30
0.0
  0
VERTEX
  5
20D5
330
40E
100
AcDbEntity
  8
0
100
AcDbVertex
100
AcDb2dVertex
 10
40118.79104583501
 20
6789.515827027432
 30
0.0
  0
SEQEND
  5
20D6
330
40E
100
AcDbEntity
  8
0
  0
TEXT
  5
40F
330
1F
100
AcDbEntity
  8
0
100
AcDbText
 10
32162.95930789137
 20
8789.515827027434
 30
0.0
 40
500.0
  1
ポリライン
  7
KANJI
100
AcDbText
  0
POLYLINE
  5
411
330
1F
100
AcDbEntity
  8
0
100
AcDb2dPolyline
 66
     1
 10
0.0
 20
0.0
 30
0.0
 70
     1
1001
ACAD
1000
ASC_BOUNDS
1002
{
1070
    19
1005
434
1002
}
  0
VERTEX
  5
20D7
330
411
100
AcDbEntity
  8
0
100
AcDbVertex
100
AcDb2dVertex
 10
37649.98492586595
 20
15879.05486911342
 30
0.0
  0
VERTEX
  5
20D8
330
411
100
AcDbEntity
  8
0
100
AcDbVertex
100
AcDb2dVertex
 10
40498.45357200499
 20
15879.05486911342
 30
0.0
  0
VERTEX
  5
20D9
330
411
100
AcDbEntity
  8
0
100
AcDbVertex
100
AcDb2dVertex
 10
40498.45357200499
 20
13879.05486911342
 30
0.0
  0
VERTEX
  5
20DA
330
411
100
AcDbEntity
  8
0
100
AcDbVertex
100
AcDb2dVertex
 10
37649.98492586595
 20
13879.05486911342
 30
0.0
  0
SEQEND
  5
20DB
330
411
100
AcDbEntity
  8
0
  0
INSERT
  5
434
330
1F
100
AcDbEntity
  8
0
  6
CONTINUOUS
100
AcDbBlockReference
  2
*X60
 10
0.0
 20
0.0
 30
0.0
1001
ACAD
1000
HATCH
1002
{
1070
    19
1000
ANSI31
1040
100.0
1040
0.0
1000
ASC_BOUNDS
1070
     1
1070
     1
1070
     1
1005
411
1000
ASC_SEEDPOINT
1011
39291.35995673742
1021
15049.92323490473
1031
0.0
1000
R14_HATCH_DATA
1000
434
1011
1.0
1021
0.0
1031
0.0
1011
0.0
1021
1.0
1031
0.0
1011
0.0
1021
0.0
1031
1.0
1040
0.0
1010
0.0
1020
0.0
1030
1.0
1000
ANSI31
1070
     0
1070
     1
1071
        1
1071
        7
1070
     0
1070
     1
1071
        4
1040
37649.98492586595
1040
15879.05486911342
1040
37649.98492586595
1040
13879.05486911342
1040
40498.45357200499
1040
13879.05486911342
1040
40498.45357200498
1040
15879.05486911342
1071
        1
1005
411
1070
     0
1070
     1
1040
0.0
1040
100.0
1070
     0
1070
     1
1040
0.7853981633974483
1040
21081.92472009494
1040
7900.63361766199
1040
-224.5064030267287
1040
224.5064030267288
1070
     0
1040
12.72318334023255
1071
        1
1040
39291.35995673742
1040
15049.92323490473
1040
0.0
1002
}
  0
TEXT
  5
435
330
1F
100
AcDbEntity
  8
0
100
AcDbText
 10
37649.98492586595
 20
16479.05486911342
 30
0.0
 40
500.0
  1
ハッチング
  7
KANJI
100
AcDbText
  0
TEXT
  5
436
330
1F
100
AcDbEntity
  8
0
100
AcDbText
 10
37649.98492586595
 20
15879.05486911342
 30
0.0
 40
500.0
  1
ANSI31
  7
KANJI
100
AcDbText
  0
POINT
  5
43E
330
1F
100
AcDbEntity
  8
0
100
AcDbPoint
 10
36750.93264721553
 20
18178.72189894357
 30
0.0
  0
POINT
  5
43F
330
1F
100
AcDbEntity
  8
0
100
AcDbPoint
 10
37495.84349439684
 20
18178.72189894357
 30
0.0
  0
POINT
  5
440
330
1F
100
AcDbEntity
  8
0
100
AcDbPoint
 10
38240.75434157815
 20
18178.72189894357
 30
0.0
  0
POINT
  5
441
330
1F
100
AcDbEntity
  8
0
100
AcDbPoint
 10
38985.66518875945
 20
18178.72189894357
 30
0.0
  0
POINT
  5
442
330
1F
100
AcDbEntity
  8
0
100
AcDbPoint
 10
39730.57603594075
 20
18178.72189894357
 30
0.0
  0
TEXT
  5
443
330
1F
100
AcDbEntity
  8
0
100
AcDbText
 10
36750.93264721553
 20
18486.48910571766
 30
0.0
 40
500.0
  1
点(絶対単位300)
  7
KANJI
100
AcDbText
  0
POINT
  5
444
330
1F
100
AcDbEntity
  8
0
100
AcDbPoint
 10
40475.48688312207
 20
18178.72189894357
 30
0.0
  0
POINT
  5
445
330
1F
100
AcDbEntity
  8
0
100
AcDbPoint
 10
41220.39773030337
 20
18178.72189894357
 30
0.0
  0
TEXT
  5
564
330
1F
100
AcDbEntity
  8
1
100
AcDbText
 10
834.831670027631
 20
22670.88067496866
 30
0.0
 40
500.0
  1
ＭＳゴシック右上
  7
KANJI2
 72
     2
 11
6032.801213174838
 21
23170.88067496867
 31
0.0
100
AcDbText
 73
     3
  0
TEXT
  5
565
330
1F
100
AcDbEntity
  8
1
100
AcDbText
 10
834.8316700276336
 20
21670.88067496866
 30
0.0
 40
500.0
  1
ＭＳゴシック左中央
  7
KANJI2
 11
834.8316700276336
 21
21920.88067496866
 31
0.0
100
AcDbText
 73
     2
  0
LINE
  5
566
330
1F
100
AcDbEntity
  8
1
100
AcDbLine
 10
834.8316700276336
 20
21670.88067496866
 30
0.0
 11
6682.541299469253
 21
21670.88067496867
 31
0.0
  0
LINE
  5
567
330
1F
100
AcDbEntity
  8
1
100
AcDbLine
 10
834.8316700276319
 20
22170.88067496866
 30
0.0
 11
6682.541299469251
 21
22170.88067496867
 31
0.0
  0
TEXT
  5
568
330
1F
100
AcDbEntity
  8
1
100
AcDbText
 10
834.8316700276351
 20
20670.88067496866
 30
0.0
 40
500.0
  1
ＭＳゴシック中央
  7
KANJI2
 72
     1
 11
3433.816441601239
 21
20920.88067496866
 31
0.0
100
AcDbText
 73
     2
  0
LINE
  5
569
330
1F
100
AcDbEntity
  8
1
100
AcDbLine
 10
834.8316700276354
 20
20670.88067496866
 30
0.0
 11
6032.797142108851
 21
20670.88067496867
 31
0.0
  0
LINE
  5
56A
330
1F
100
AcDbEntity
  8
1
100
AcDbLine
 10
834.8316700276354
 20
21170.88067496866
 30
0.0
 11
6032.797142108847
 21
21170.88067496867
 31
0.0
  0
TEXT
  5
56B
330
1F
100
AcDbEntity
  8
1
100
AcDbText
 10
834.8316700276372
 20
19670.88067496867
 30
0.0
 40
500.0
  1
ＭＳゴシック右中央
  7
KANJI2
 72
     2
 11
6682.547406068247
 21
19920.88067496867
 31
0.0
100
AcDbText
 73
     2
  0
LINE
  5
56C
330
1F
100
AcDbEntity
  8
1
100
AcDbLine
 10
834.8316700276372
 20
19670.88067496866
 30
0.0
 11
6682.541299469256
 21
19670.88067496867
 31
0.0
  0
LINE
  5
56D
330
1F
100
AcDbEntity
  8
1
100
AcDbLine
 10
834.8316700276372
 20
20170.88067496866
 30
0.0
 11
6682.541299469256
 21
20170.88067496867
 31
0.0
  0
TEXT
  5
56E
330
1F
100
AcDbEntity
  8
1
100
AcDbText
 10
834.8316700276392
 20
18670.88067496866
 30
0.0
 40
500.0
  1
ＭＳゴシック左下
  7
KANJI2
 11
834.8316700276392
 21
18579.51011659303
 31
0.0
100
AcDbText
 73
     1
  0
LINE
  5
56F
330
1F
100
AcDbEntity
  8
1
100
AcDbLine
 10
834.8316700276392
 20
19170.88067496866
 30
0.0
 11
6032.797142108851
 21
19170.88067496867
 31
0.0
  0
LINE
  5
570
330
1F
100
AcDbEntity
  8
1
100
AcDbLine
 10
834.8316700276392
 20
18670.88067496866
 30
0.0
 11
6032.797142108854
 21
18670.88067496867
 31
0.0
  0
TEXT
  5
571
330
1F
100
AcDbEntity
  8
1
100
AcDbText
 10
834.8316700276427
 20
17670.88067496866
 30
0.0
 40
500.0
  1
ＭＳゴシック下中心
  7
KANJI2
 72
     1
 11
3758.689538047947
 21
17579.51011659303
 31
0.0
100
AcDbText
 73
     1
  0
LINE
  5
572
330
1F
100
AcDbEntity
  8
1
100
AcDbLine
 10
834.8316700276409
 20
18170.88067496866
 30
0.0
 11
6682.54129946926
 21
18170.88067496867
 31
0.0
  0
LINE
  5
573
330
1F
100
AcDbEntity
  8
1
100
AcDbLine
 10
834.8316700276427
 20
17670.88067496866
 30
0.0
 11
6682.54129946926
 21
17670.88067496867
 31
0.0
  0
TEXT
  5
574
330
1F
100
AcDbEntity
  8
1
100
AcDbText
 10
834.8316700276436
 20
16670.88067496866
 30
0.0
 40
500.0
  1
ＭＳゴシック右下
  7
KANJI2
 72
     2
 11
6032.801213174851
 21
16579.51011659303
 31
0.0
100
AcDbText
 73
     1
  0
LINE
  5
575
330
1F
100
AcDbEntity
  8
1
100
AcDbLine
 10
834.8316700276445
 20
16670.88067496866
 30
0.0
 11
6032.797142108859
 21
16670.88067496867
 31
0.0
  0
LINE
  5
576
330
1F
100
AcDbEntity
  8
1
100
AcDbLine
 10
834.8316700276445
 20
17170.88067496866
 30
0.0
 11
6032.797142108854
 21
17170.88067496867
 31
0.0
  0
LINE
  5
577
330
1F
100
AcDbEntity
  8
1
100
AcDbLine
 10
834.8316700276482
 20
15140.89629083311
 30
0.0
 11
7332.293598961658
 21
15140.89629083312
 31
0.0
  0
TEXT
  5
578
330
1F
100
AcDbEntity
  8
1
100
AcDbText
 10
834.8316700276482
 20
15140.89629083311
 30
0.0
 40
1000.0
  1
高さを確認
  7
KANJI2
 72
     2
 11
7332.293598961658
 21
15140.89629083311
 31
0.0
100
AcDbText
  0
LINE
  5
579
330
1F
100
AcDbEntity
  8
1
100
AcDbLine
 10
7332.293598961658
 20
16140.89629083311
 30
0.0
 11
834.8316700276482
 21
16140.89629083311
 31
0.0
  0
MTEXT
  5
57A
330
1F
100
AcDbEntity
  8
1
100
AcDbMText
 10
834.8316700276477
 20
14517.44463265923
 30
0.0
 40
500.0
 41
4532.905584178652
 71
     1
 72
     1
  1
2行の\Pマルチテキスト
  7
KANJI2
1001
ACAD
1000
MTEXTBEGIN
1070
    73
1070
     1
1070
    44
1040
1.0
1070
    74
1070
     0
1000
MTEXTEND
1000
MTEXTBEGIN
1070
    73
1070
     1
1070
    44
1040
1.0
1070
    74
1070
     0
1000
MTEXTEND
1000
MTEXTBEGIN
1070
    73
1070
     1
1070
    44
1040
1.0
1070
    74
1070
     0
1000
MTEXTEND
  0
LINE
  5
57B
330
1F
100
AcDbEntity
  8
1
100
AcDbLine
 10
834.8316700276482
 20
14517.44463265923
 30
0.0
 11
5367.7372542063
 21
14517.44463265923
 31
0.0
  0
LINE
  5
57C
330
1F
100
AcDbEntity
  8
1
100
AcDbLine
 10
834.8316700276482
 20
13110.50723841219
 30
0.0
 11
5367.737254206298
 21
13110.50723841219
 31
0.0
  0
LINE
  5
57D
330
1F
100
AcDbEntity
  8
1
100
AcDbLine
 10
834.8316700276445
 20
16670.88067496866
 30
0.0
 11
834.8316700276445
 21
17170.88067496866
 31
0.0
  0
LINE
  5
57E
330
1F
100
AcDbEntity
  8
1
100
AcDbLine
 10
834.8316700276482
 20
14517.44463265923
 30
0.0
 11
834.8316700276482
 21
13110.50723841219
 31
0.0
  0
LINE
  5
57F
330
1F
100
AcDbEntity
  8
1
100
AcDbLine
 10
834.8316700276482
 20
15140.89629083311
 30
0.0
 11
834.8316700276482
 21
16140.89629083311
 31
0.0
  0
LINE
  5
580
330
1F
100
AcDbEntity
  8
1
100
AcDbLine
 10
834.8316700276372
 20
19670.88067496866
 30
0.0
 11
834.8316700276372
 21
20170.88067496866
 31
0.0
  0
LINE
  5
581
330
1F
100
AcDbEntity
  8
1
100
AcDbLine
 10
834.8316700276427
 20
17670.88067496866
 30
0.0
 11
834.8316700276409
 21
18170.88067496866
 31
0.0
  0
LINE
  5
582
330
1F
100
AcDbEntity
  8
1
100
AcDbLine
 10
834.8316700276392
 20
18670.88067496866
 30
0.0
 11
834.8316700276392
 21
19170.88067496866
 31
0.0
  0
LINE
  5
583
330
1F
100
AcDbEntity
  8
1
100
AcDbLine
 10
834.8316700276354
 20
20670.88067496866
 30
0.0
 11
834.8316700276354
 21
21170.88067496866
 31
0.0
  0
LINE
  5
584
330
1F
100
AcDbEntity
  8
1
100
AcDbLine
 10
834.8316700276336
 20
21670.88067496866
 30
0.0
 11
834.8316700276319
 21
22170.88067496866
 31
0.0
  0
LINE
  5
585
330
1F
100
AcDbEntity
  8
1
100
AcDbLine
 10
6032.797142108859
 20
16670.88067496867
 30
0.0
 11
6032.797142108854
 21
17170.88067496867
 31
0.0
  0
LINE
  5
586
330
1F
100
AcDbEntity
  8
1
100
AcDbLine
 10
5383.052984748454
 20
16670.88067496867
 30
0.0
 11
5383.052984748452
 21
17170.88067496867
 31
0.0
  0
LINE
  5
587
330
1F
100
AcDbEntity
  8
1
100
AcDbLine
 10
4733.308827388051
 20
16670.88067496867
 30
0.0
 11
4733.308827388049
 21
17170.88067496867
 31
0.0
  0
LINE
  5
588
330
1F
100
AcDbEntity
  8
1
100
AcDbLine
 10
4083.564670027644
 20
16670.88067496866
 30
0.0
 11
4083.564670027644
 21
17170.88067496866
 31
0.0
  0
LINE
  5
589
330
1F
100
AcDbEntity
  8
1
100
AcDbLine
 10
3433.818070027644
 20
16670.88067496866
 30
0.0
 11
3433.818070027644
 21
17170.88067496866
 31
0.0
  0
LINE
  5
58A
330
1F
100
AcDbEntity
  8
1
100
AcDbLine
 10
2784.071470027644
 20
16670.88067496866
 30
0.0
 11
2784.071470027644
 21
17170.88067496866
 31
0.0
  0
LINE
  5
58B
330
1F
100
AcDbEntity
  8
1
100
AcDbLine
 10
2134.324870027645
 20
16670.88067496866
 30
0.0
 11
2134.324870027643
 21
17170.88067496866
 31
0.0
  0
LINE
  5
58C
330
1F
100
AcDbEntity
  8
1
100
AcDbLine
 10
1484.578270027645
 20
16670.88067496866
 30
0.0
 11
1484.578270027643
 21
17170.88067496866
 31
0.0
  0
LINE
  5
58D
330
1F
100
AcDbEntity
  8
1
100
AcDbLine
 10
5367.737254206298
 20
13110.50723841219
 30
0.0
 11
5367.7372542063
 21
14517.44463265923
 31
0.0
  0
LINE
  5
58E
330
1F
100
AcDbEntity
  8
1
100
AcDbLine
 10
4733.308827388051
 20
16670.88067496867
 30
0.0
 11
4733.308827388051
 21
16670.88067496867
 31
0.0
  0
LINE
  5
58F
330
1F
100
AcDbEntity
  8
1
100
AcDbLine
 10
5383.052984748454
 20
16670.88067496867
 30
0.0
 11
5383.052984748454
 21
16670.88067496867
 31
0.0
  0
LINE
  5
590
330
1F
100
AcDbEntity
  8
1
100
AcDbLine
 10
6032.797142108859
 20
16670.88067496868
 30
0.0
 11
6032.797142108859
 21
16670.88067496868
 31
0.0
  0
LINE
  5
591
330
1F
100
AcDbEntity
  8
1
100
AcDbLine
 10
7332.293598961658
 20
15140.89629083312
 30
0.0
 11
7332.293598961658
 21
16140.89629083311
 31
0.0
  0
LINE
  5
592
330
1F
100
AcDbEntity
  8
1
100
AcDbLine
 10
4083.564670027637
 20
19670.88067496866
 30
0.0
 11
4083.564670027637
 21
20170.88067496866
 31
0.0
  0
LINE
  5
593
330
1F
100
AcDbEntity
  8
1
100
AcDbLine
 10
3433.818070027637
 20
19670.88067496866
 30
0.0
 11
3433.818070027637
 21
20170.88067496866
 31
0.0
  0
LINE
  5
594
330
1F
100
AcDbEntity
  8
1
100
AcDbLine
 10
2784.071470027637
 20
19670.88067496866
 30
0.0
 11
2784.071470027637
 21
20170.88067496866
 31
0.0
  0
LINE
  5
595
330
1F
100
AcDbEntity
  8
1
100
AcDbLine
 10
1484.578270027637
 20
19670.88067496866
 30
0.0
 11
1484.578270027637
 21
20170.88067496866
 31
0.0
  0
LINE
  5
596
330
1F
100
AcDbEntity
  8
1
100
AcDbLine
 10
2134.324870027638
 20
19670.88067496866
 30
0.0
 11
2134.324870027636
 21
20170.88067496866
 31
0.0
  0
LINE
  5
597
330
1F
100
AcDbEntity
  8
1
100
AcDbLine
 10
1484.578270027641
 20
17670.88067496866
 30
0.0
 11
1484.578270027641
 21
18170.88067496866
 31
0.0
  0
LINE
  5
598
330
1F
100
AcDbEntity
  8
1
100
AcDbLine
 10
2134.324870027641
 20
17670.88067496866
 30
0.0
 11
2134.32487002764
 21
18170.88067496866
 31
0.0
  0
LINE
  5
599
330
1F
100
AcDbEntity
  8
1
100
AcDbLine
 10
2784.07147002764
 20
17670.88067496866
 30
0.0
 11
2784.07147002764
 21
18170.88067496866
 31
0.0
  0
LINE
  5
59A
330
1F
100
AcDbEntity
  8
1
100
AcDbLine
 10
1484.578270027639
 20
18670.88067496866
 30
0.0
 11
1484.578270027639
 21
19170.88067496866
 31
0.0
  0
LINE
  5
59B
330
1F
100
AcDbEntity
  8
1
100
AcDbLine
 10
2134.32487002764
 20
18670.88067496866
 30
0.0
 11
2134.324870027638
 21
19170.88067496866
 31
0.0
  0
LINE
  5
59C
330
1F
100
AcDbEntity
  8
1
100
AcDbLine
 10
2784.071470027638
 20
18670.88067496866
 30
0.0
 11
2784.071470027638
 21
19170.88067496866
 31
0.0
  0
LINE
  5
59D
330
1F
100
AcDbEntity
  8
1
100
AcDbLine
 10
3433.818070027641
 20
17670.88067496866
 30
0.0
 11
3433.818070027641
 21
18170.88067496866
 31
0.0
  0
LINE
  5
59E
330
1F
100
AcDbEntity
  8
1
100
AcDbLine
 10
4083.564670027641
 20
17670.88067496866
 30
0.0
 11
4083.564670027641
 21
18170.88067496866
 31
0.0
  0
LINE
  5
59F
330
1F
100
AcDbEntity
  8
1
100
AcDbLine
 10
3433.818070027639
 20
18670.88067496866
 30
0.0
 11
3433.818070027639
 21
19170.88067496866
 31
0.0
  0
LINE
  5
5A0
330
1F
100
AcDbEntity
  8
1
100
AcDbLine
 10
4083.564670027639
 20
18670.88067496866
 30
0.0
 11
4083.564670027639
 21
19170.88067496866
 31
0.0
  0
LINE
  5
5A1
330
1F
100
AcDbEntity
  8
1
100
AcDbLine
 10
1484.578270027635
 20
20670.88067496866
 30
0.0
 11
1484.578270027634
 21
21170.88067496866
 31
0.0
  0
LINE
  5
5A2
330
1F
100
AcDbEntity
  8
1
100
AcDbLine
 10
2134.324870027636
 20
20670.88067496866
 30
0.0
 11
2134.324870027634
 21
21170.88067496866
 31
0.0
  0
LINE
  5
5A3
330
1F
100
AcDbEntity
  8
1
100
AcDbLine
 10
2784.071470027635
 20
20670.88067496866
 30
0.0
 11
2784.071470027635
 21
21170.88067496866
 31
0.0
  0
LINE
  5
5A4
330
1F
100
AcDbEntity
  8
1
100
AcDbLine
 10
1484.578270027632
 20
21670.88067496866
 30
0.0
 11
1484.578270027632
 21
22170.88067496866
 31
0.0
  0
LINE
  5
5A5
330
1F
100
AcDbEntity
  8
1
100
AcDbLine
 10
2134.324870027632
 20
21670.88067496866
 30
0.0
 11
2134.324870027631
 21
22170.88067496866
 31
0.0
  0
LINE
  5
5A6
330
1F
100
AcDbEntity
  8
1
100
AcDbLine
 10
2784.071470027631
 20
21670.88067496866
 30
0.0
 11
2784.071470027631
 21
22170.88067496866
 31
0.0
  0
LINE
  5
5A7
330
1F
100
AcDbEntity
  8
1
100
AcDbLine
 10
3433.818070027635
 20
20670.88067496866
 30
0.0
 11
3433.818070027635
 21
21170.88067496866
 31
0.0
  0
LINE
  5
5A8
330
1F
100
AcDbEntity
  8
1
100
AcDbLine
 10
4083.564670027636
 20
20670.88067496866
 30
0.0
 11
4083.564670027636
 21
21170.88067496866
 31
0.0
  0
LINE
  5
5A9
330
1F
100
AcDbEntity
  8
1
100
AcDbLine
 10
3433.818070027632
 20
21670.88067496866
 30
0.0
 11
3433.818070027632
 21
22170.88067496866
 31
0.0
  0
LINE
  5
5AA
330
1F
100
AcDbEntity
  8
1
100
AcDbLine
 10
4083.564670027632
 20
21670.88067496866
 30
0.0
 11
4083.564670027632
 21
22170.88067496866
 31
0.0
  0
LINE
  5
5AB
330
1F
100
AcDbEntity
  8
1
100
AcDbLine
 10
6682.541299469256
 20
19670.88067496867
 30
0.0
 11
6682.541299469256
 21
20170.88067496867
 31
0.0
  0
LINE
  5
5AC
330
1F
100
AcDbEntity
  8
1
100
AcDbLine
 10
6032.797142108851
 20
19670.88067496867
 30
0.0
 11
6032.797142108851
 21
20170.88067496867
 31
0.0
  0
LINE
  5
5AD
330
1F
100
AcDbEntity
  8
1
100
AcDbLine
 10
4733.308827388044
 20
19670.88067496867
 30
0.0
 11
4733.308827388042
 21
20170.88067496866
 31
0.0
  0
LINE
  5
5AE
330
1F
100
AcDbEntity
  8
1
100
AcDbLine
 10
5383.052984748449
 20
19670.88067496867
 30
0.0
 11
5383.052984748447
 21
20170.88067496867
 31
0.0
  0
LINE
  5
5AF
330
1F
100
AcDbEntity
  8
1
100
AcDbLine
 10
4733.308827388047
 20
17670.88067496867
 30
0.0
 11
4733.308827388047
 21
17670.88067496867
 31
0.0
  0
LINE
  5
5B0
330
1F
100
AcDbEntity
  8
1
100
AcDbLine
 10
4733.308827388047
 20
17670.88067496867
 30
0.0
 11
4733.308827388046
 21
18170.88067496866
 31
0.0
  0
LINE
  5
5B1
330
1F
100
AcDbEntity
  8
1
100
AcDbLine
 10
5383.052984748452
 20
17670.88067496867
 30
0.0
 11
5383.052984748452
 21
17670.88067496867
 31
0.0
  0
LINE
  5
5B2
330
1F
100
AcDbEntity
  8
1
100
AcDbLine
 10
5383.052984748452
 20
17670.88067496867
 30
0.0
 11
5383.05298474845
 21
18170.88067496867
 31
0.0
  0
LINE
  5
5B3
330
1F
100
AcDbEntity
  8
1
100
AcDbLine
 10
6032.797142108854
 20
17670.88067496868
 30
0.0
 11
6032.797142108854
 21
17670.88067496868
 31
0.0
  0
LINE
  5
5B4
330
1F
100
AcDbEntity
  8
1
100
AcDbLine
 10
6032.797142108854
 20
17670.88067496867
 30
0.0
 11
6032.797142108854
 21
18170.88067496867
 31
0.0
  0
LINE
  5
5B5
330
1F
100
AcDbEntity
  8
1
100
AcDbLine
 10
5383.05298474845
 20
18670.88067496867
 30
0.0
 11
5383.052984748449
 21
19170.88067496867
 31
0.0
  0
LINE
  5
5B6
330
1F
100
AcDbEntity
  8
1
100
AcDbLine
 10
4733.308827388046
 20
18670.88067496867
 30
0.0
 11
4733.308827388044
 21
19170.88067496867
 31
0.0
  0
LINE
  5
5B7
330
1F
100
AcDbEntity
  8
1
100
AcDbLine
 10
4733.308827388046
 20
18670.88067496867
 30
0.0
 11
4733.308827388046
 21
18670.88067496867
 31
0.0
  0
LINE
  5
5B8
330
1F
100
AcDbEntity
  8
1
100
AcDbLine
 10
5383.05298474845
 20
18670.88067496867
 30
0.0
 11
5383.05298474845
 21
18670.88067496867
 31
0.0
  0
LINE
  5
5B9
330
1F
100
AcDbEntity
  8
1
100
AcDbLine
 10
4733.308827388044
 20
19670.88067496867
 30
0.0
 11
4733.308827388044
 21
19670.88067496867
 31
0.0
  0
LINE
  5
5BA
330
1F
100
AcDbEntity
  8
1
100
AcDbLine
 10
5383.052984748449
 20
19670.88067496867
 30
0.0
 11
5383.052984748449
 21
19670.88067496867
 31
0.0
  0
LINE
  5
5BB
330
1F
100
AcDbEntity
  8
1
100
AcDbLine
 10
6032.797142108854
 20
18670.88067496867
 30
0.0
 11
6032.797142108851
 21
19170.88067496867
 31
0.0
  0
LINE
  5
5BC
330
1F
100
AcDbEntity
  8
1
100
AcDbLine
 10
6032.797142108854
 20
18670.88067496868
 30
0.0
 11
6032.797142108854
 21
18670.88067496868
 31
0.0
  0
LINE
  5
5BD
330
1F
100
AcDbEntity
  8
1
100
AcDbLine
 10
6032.797142108851
 20
19670.88067496868
 30
0.0
 11
6032.797142108851
 21
19670.88067496868
 31
0.0
  0
LINE
  5
5BE
330
1F
100
AcDbEntity
  8
1
100
AcDbLine
 10
6682.54129946926
 20
17670.88067496868
 30
0.0
 11
6682.54129946926
 21
17670.88067496868
 31
0.0
  0
LINE
  5
5BF
330
1F
100
AcDbEntity
  8
1
100
AcDbLine
 10
6682.54129946926
 20
17670.88067496867
 30
0.0
 11
6682.54129946926
 21
18170.88067496867
 31
0.0
  0
LINE
  5
5C0
330
1F
100
AcDbEntity
  8
1
100
AcDbLine
 10
6682.541299469256
 20
19670.88067496868
 30
0.0
 11
6682.541299469256
 21
19670.88067496868
 31
0.0
  0
LINE
  5
5C1
330
1F
100
AcDbEntity
  8
1
100
AcDbLine
 10
4733.308827388042
 20
20670.88067496867
 30
0.0
 11
4733.308827388042
 21
20670.88067496867
 31
0.0
  0
LINE
  5
5C2
330
1F
100
AcDbEntity
  8
1
100
AcDbLine
 10
4733.308827388042
 20
20670.88067496867
 30
0.0
 11
4733.30882738804
 21
21170.88067496867
 31
0.0
  0
LINE
  5
5C3
330
1F
100
AcDbEntity
  8
1
100
AcDbLine
 10
5383.052984748445
 20
20670.88067496867
 30
0.0
 11
5383.052984748445
 21
20670.88067496867
 31
0.0
  0
LINE
  5
5C4
330
1F
100
AcDbEntity
  8
1
100
AcDbLine
 10
5383.052984748445
 20
20670.88067496867
 30
0.0
 11
5383.052984748443
 21
21170.88067496867
 31
0.0
  0
LINE
  5
5C5
330
1F
100
AcDbEntity
  8
1
100
AcDbLine
 10
6032.797142108851
 20
20670.88067496868
 30
0.0
 11
6032.797142108851
 21
20670.88067496868
 31
0.0
  0
LINE
  5
5C6
330
1F
100
AcDbEntity
  8
1
100
AcDbLine
 10
6032.797142108851
 20
20670.88067496867
 30
0.0
 11
6032.797142108847
 21
21170.88067496867
 31
0.0
  0
LINE
  5
5C7
330
1F
100
AcDbEntity
  8
1
100
AcDbLine
 10
4733.308827388039
 20
21670.88067496867
 30
0.0
 11
4733.308827388037
 21
22170.88067496867
 31
0.0
  0
LINE
  5
5C8
330
1F
100
AcDbEntity
  8
1
100
AcDbLine
 10
5383.052984748443
 20
21670.88067496867
 30
0.0
 11
5383.052984748442
 21
22170.88067496867
 31
0.0
  0
LINE
  5
5C9
330
1F
100
AcDbEntity
  8
1
100
AcDbLine
 10
4733.308827388039
 20
21670.88067496867
 30
0.0
 11
4733.308827388039
 21
21670.88067496867
 31
0.0
  0
LINE
  5
5CA
330
1F
100
AcDbEntity
  8
1
100
AcDbLine
 10
5383.052984748443
 20
21670.88067496867
 30
0.0
 11
5383.052984748443
 21
21670.88067496867
 31
0.0
  0
LINE
  5
5CB
330
1F
100
AcDbEntity
  8
1
100
AcDbLine
 10
6032.797142108847
 20
21670.88067496867
 30
0.0
 11
6032.797142108846
 21
22170.88067496867
 31
0.0
  0
LINE
  5
5CC
330
1F
100
AcDbEntity
  8
1
100
AcDbLine
 10
6032.797142108847
 20
21670.88067496868
 30
0.0
 11
6032.797142108847
 21
21670.88067496868
 31
0.0
  0
LINE
  5
5CD
330
1F
100
AcDbEntity
  8
1
100
AcDbLine
 10
6682.541299469253
 20
21670.88067496867
 30
0.0
 11
6682.541299469251
 21
22170.88067496867
 31
0.0
  0
LINE
  5
5CE
330
1F
100
AcDbEntity
  8
1
100
AcDbLine
 10
6682.541299469253
 20
21670.88067496868
 30
0.0
 11
6682.541299469253
 21
21670.88067496868
 31
0.0
  0
LINE
  5
5CF
330
1F
100
AcDbEntity
  8
1
100
AcDbLine
 10
834.8316700276226
 20
28670.88067496866
 30
0.0
 11
4733.308827388029
 21
28670.88067496866
 31
0.0
  0
TEXT
  5
5D0
330
1F
100
AcDbEntity
  8
1
100
AcDbText
 10
834.8316700276226
 20
28670.88067496866
 30
0.0
 40
500.0
  1
ＭＳゴシック
  7
KANJI2
100
AcDbText
  0
LINE
  5
5D1
330
1F
100
AcDbEntity
  8
1
100
AcDbLine
 10
834.8316700276226
 20
29170.88067496866
 30
0.0
 11
4733.308827388028
 21
29170.88067496866
 31
0.0
  0
LINE
  5
5D2
330
1F
100
AcDbEntity
  8
1
100
AcDbLine
 10
834.8316700276226
 20
26670.88067496866
 30
0.0
 11
6682.541299469241
 21
26670.88067496867
 31
0.0
  0
LINE
  5
5D3
330
1F
100
AcDbEntity
  8
1
100
AcDbLine
 10
834.8316700276226
 20
27170.88067496866
 30
0.0
 11
6682.541299469242
 21
27170.88067496867
 31
0.0
  0
TEXT
  5
5D4
330
1F
100
AcDbEntity
  8
1
100
AcDbText
 10
834.8316700276226
 20
26670.88067496867
 30
0.0
 40
500.0
  1
ＭＳゴシック右寄せ
  7
KANJI2
 72
     2
 11
6682.547406068232
 21
26670.88067496867
 31
0.0
100
AcDbText
  0
LINE
  5
5D5
330
1F
100
AcDbEntity
  8
1
100
AcDbLine
 10
834.8316700276226
 20
25670.88067496866
 30
0.0
 11
6032.797142108838
 21
25670.88067496867
 31
0.0
  0
LINE
  5
5D6
330
1F
100
AcDbEntity
  8
1
100
AcDbLine
 10
834.8316700276226
 20
26170.88067496866
 30
0.0
 11
6032.797142108837
 21
26170.88067496867
 31
0.0
  0
TEXT
  5
5D7
330
1F
100
AcDbEntity
  8
1
100
AcDbText
 10
834.8316700276241
 20
25672.14971050166
 30
0.0
 40
500.0
  1
ＭＳゴシック中央
  7
KANJI2
 72
     4
 11
3433.816441601227
 21
25905.65224857272
 31
0.0
100
AcDbText
  0
TEXT
  5
5D8
330
1F
100
AcDbEntity
  8
1
100
AcDbText
 10
834.8316700276264
 20
24670.88067496866
 30
0.0
 40
500.0
  1
ＭＳゴシック左上
  7
KANJI2
 11
834.8316700276264
 21
25170.88067496866
 31
0.0
100
AcDbText
 73
     3
  0
LINE
  5
5D9
330
1F
100
AcDbEntity
  8
1
100
AcDbLine
 10
834.8316700276264
 20
24670.88067496866
 30
0.0
 11
6032.79714210884
 21
24670.88067496867
 31
0.0
  0
LINE
  5
5DA
330
1F
100
AcDbEntity
  8
1
100
AcDbLine
 10
834.8316700276246
 20
25170.88067496866
 30
0.0
 11
6032.797142108838
 21
25170.88067496866
 31
0.0
  0
TEXT
  5
5DB
330
1F
100
AcDbEntity
  8
1
100
AcDbText
 10
834.8316700276226
 20
27670.88067496868
 30
0.0
 40
500.0
  1
ＭＳゴシックフィット
 41
0.9
  7
KANJI2
 72
     5
 11
6682.547406068232
 21
27670.88067496868
 31
0.0
100
AcDbText
  0
LINE
  5
5DC
330
1F
100
AcDbEntity
  8
1
100
AcDbLine
 10
834.8316700276226
 20
28170.88067496866
 30
0.0
 11
6682.541299469242
 21
28170.88067496867
 31
0.0
  0
LINE
  5
5DD
330
1F
100
AcDbEntity
  8
1
100
AcDbLine
 10
834.8316700276226
 20
27670.88067496866
 30
0.0
 11
6682.541299469241
 21
27670.88067496867
 31
0.0
  0
LINE
  5
5DE
330
1F
100
AcDbEntity
  8
1
100
AcDbLine
 10
834.8316700276281
 20
24170.88067496866
 30
0.0
 11
6682.541299469242
 21
24170.88067496867
 31
0.0
  0
LINE
  5
5DF
330
1F
100
AcDbEntity
  8
1
100
AcDbLine
 10
834.8316700276281
 20
23670.88067496866
 30
0.0
 11
6682.541299469247
 21
23670.88067496867
 31
0.0
  0
LINE
  5
5E0
330
1F
100
AcDbEntity
  8
1
100
AcDbLine
 10
834.8316700276299
 20
23170.88067496866
 30
0.0
 11
6032.797142108844
 21
23170.88067496867
 31
0.0
  0
LINE
  5
5E1
330
1F
100
AcDbEntity
  8
1
100
AcDbLine
 10
834.8316700276299
 20
22670.88067496866
 30
0.0
 11
6032.797142108846
 21
22670.88067496867
 31
0.0
  0
TEXT
  5
5E2
330
1F
100
AcDbEntity
  8
1
100
AcDbText
 10
834.8316700276281
 20
23670.88067496866
 30
0.0
 40
500.0
  1
ＭＳゴシック上中心
  7
KANJI2
 72
     1
 11
3758.689538047932
 21
24170.88067496866
 31
0.0
100
AcDbText
 73
     3
  0
LINE
  5
5E3
330
1F
100
AcDbEntity
  8
1
100
AcDbLine
 10
834.8316700276281
 20
23670.88067496866
 30
0.0
 11
834.8316700276281
 21
24170.88067496866
 31
0.0
  0
LINE
  5
5E4
330
1F
100
AcDbEntity
  8
1
100
AcDbLine
 10
834.8316700276299
 20
22670.88067496866
 30
0.0
 11
834.8316700276299
 21
23170.88067496866
 31
0.0
  0
LINE
  5
5E5
330
1F
100
AcDbEntity
  8
1
100
AcDbLine
 10
834.8316700276264
 20
24670.88067496866
 30
0.0
 11
834.8316700276246
 21
25170.88067496866
 31
0.0
  0
LINE
  5
5E6
330
1F
100
AcDbEntity
  8
1
100
AcDbLine
 10
834.8316700276226
 20
26670.88067496866
 30
0.0
 11
834.8316700276226
 21
27170.88067496866
 31
0.0
  0
LINE
  5
5E7
330
1F
100
AcDbEntity
  8
1
100
AcDbLine
 10
834.8316700276226
 20
25670.88067496866
 30
0.0
 11
834.8316700276226
 21
26170.88067496866
 31
0.0
  0
LINE
  5
5E8
330
1F
100
AcDbEntity
  8
1
100
AcDbLine
 10
834.8316700276226
 20
27670.88067496866
 30
0.0
 11
834.8316700276226
 21
28170.88067496866
 31
0.0
  0
LINE
  5
5E9
330
1F
100
AcDbEntity
  8
1
100
AcDbLine
 10
834.8316700276226
 20
28670.88067496866
 30
0.0
 11
834.8316700276226
 21
29170.88067496866
 31
0.0
  0
LINE
  5
5EA
330
1F
100
AcDbEntity
  8
1
100
AcDbLine
 10
2784.071470027627
 20
23670.88067496866
 30
0.0
 11
2784.071470027627
 21
24170.88067496866
 31
0.0
  0
LINE
  5
5EB
330
1F
100
AcDbEntity
  8
1
100
AcDbLine
 10
2134.324870027629
 20
23670.88067496866
 30
0.0
 11
2134.324870027627
 21
24170.88067496866
 31
0.0
  0
LINE
  5
5EC
330
1F
100
AcDbEntity
  8
1
100
AcDbLine
 10
1484.578270027628
 20
23670.88067496866
 30
0.0
 11
1484.578270027628
 21
24170.88067496866
 31
0.0
  0
LINE
  5
5ED
330
1F
100
AcDbEntity
  8
1
100
AcDbLine
 10
1484.57827002763
 20
22670.88067496866
 30
0.0
 11
1484.57827002763
 21
23170.88067496866
 31
0.0
  0
LINE
  5
5EE
330
1F
100
AcDbEntity
  8
1
100
AcDbLine
 10
2134.324870027631
 20
22670.88067496866
 30
0.0
 11
2134.324870027629
 21
23170.88067496866
 31
0.0
  0
LINE
  5
5EF
330
1F
100
AcDbEntity
  8
1
100
AcDbLine
 10
2784.071470027629
 20
22670.88067496866
 30
0.0
 11
2784.071470027629
 21
23170.88067496866
 31
0.0
  0
LINE
  5
5F0
330
1F
100
AcDbEntity
  8
1
100
AcDbLine
 10
1484.578270027625
 20
24670.88067496866
 30
0.0
 11
1484.578270027625
 21
25170.88067496866
 31
0.0
  0
LINE
  5
5F1
330
1F
100
AcDbEntity
  8
1
100
AcDbLine
 10
2134.324870027625
 20
24670.88067496866
 30
0.0
 11
2134.324870027623
 21
25170.88067496866
 31
0.0
  0
LINE
  5
5F2
330
1F
100
AcDbEntity
  8
1
100
AcDbLine
 10
2784.071470027624
 20
24670.88067496866
 30
0.0
 11
2784.071470027624
 21
25170.88067496866
 31
0.0
  0
LINE
  5
5F3
330
1F
100
AcDbEntity
  8
1
100
AcDbLine
 10
4083.564670027628
 20
23670.88067496866
 30
0.0
 11
4083.564670027628
 21
24170.88067496866
 31
0.0
  0
LINE
  5
5F4
330
1F
100
AcDbEntity
  8
1
100
AcDbLine
 10
3433.818070027628
 20
23670.88067496866
 30
0.0
 11
3433.818070027628
 21
24170.88067496866
 31
0.0
  0
LINE
  5
5F5
330
1F
100
AcDbEntity
  8
1
100
AcDbLine
 10
3433.818070027629
 20
22670.88067496866
 30
0.0
 11
3433.818070027629
 21
23170.88067496866
 31
0.0
  0
LINE
  5
5F6
330
1F
100
AcDbEntity
  8
1
100
AcDbLine
 10
4083.564670027629
 20
22670.88067496866
 30
0.0
 11
4083.564670027629
 21
23170.88067496866
 31
0.0
  0
LINE
  5
5F7
330
1F
100
AcDbEntity
  8
1
100
AcDbLine
 10
3433.818070027625
 20
24670.88067496866
 30
0.0
 11
3433.818070027625
 21
25170.88067496866
 31
0.0
  0
LINE
  5
5F8
330
1F
100
AcDbEntity
  8
1
100
AcDbLine
 10
4083.564670027625
 20
24670.88067496866
 30
0.0
 11
4083.564670027625
 21
25170.88067496866
 31
0.0
  0
LINE
  5
5F9
330
1F
100
AcDbEntity
  8
1
100
AcDbLine
 10
2784.071470027622
 20
26670.88067496866
 30
0.0
 11
2784.071470027622
 21
27170.88067496866
 31
0.0
  0
LINE
  5
5FA
330
1F
100
AcDbEntity
  8
1
100
AcDbLine
 10
1484.578270027623
 20
26670.88067496866
 30
0.0
 11
1484.578270027623
 21
27170.88067496866
 31
0.0
  0
LINE
  5
5FB
330
1F
100
AcDbEntity
  8
1
100
AcDbLine
 10
2134.324870027623
 20
26670.88067496866
 30
0.0
 11
2134.324870027621
 21
27170.88067496866
 31
0.0
  0
LINE
  5
5FC
330
1F
100
AcDbEntity
  8
1
100
AcDbLine
 10
1484.578270027623
 20
25670.88067496866
 30
0.0
 11
1484.578270027623
 21
26170.88067496866
 31
0.0
  0
LINE
  5
5FD
330
1F
100
AcDbEntity
  8
1
100
AcDbLine
 10
2134.324870027623
 20
25670.88067496866
 30
0.0
 11
2134.324870027621
 21
26170.88067496866
 31
0.0
  0
LINE
  5
5FE
330
1F
100
AcDbEntity
  8
1
100
AcDbLine
 10
2784.071470027622
 20
25670.88067496866
 30
0.0
 11
2784.071470027622
 21
26170.88067496866
 31
0.0
  0
LINE
  5
5FF
330
1F
100
AcDbEntity
  8
1
100
AcDbLine
 10
4083.564670027622
 20
26670.88067496866
 30
0.0
 11
4083.564670027622
 21
27170.88067496866
 31
0.0
  0
LINE
  5
600
330
1F
100
AcDbEntity
  8
1
100
AcDbLine
 10
3433.818070027622
 20
26670.88067496866
 30
0.0
 11
3433.818070027622
 21
27170.88067496866
 31
0.0
  0
LINE
  5
601
330
1F
100
AcDbEntity
  8
1
100
AcDbLine
 10
3433.818070027622
 20
25670.88067496866
 30
0.0
 11
3433.818070027622
 21
26170.88067496866
 31
0.0
  0
LINE
  5
602
330
1F
100
AcDbEntity
  8
1
100
AcDbLine
 10
4083.564670027622
 20
25670.88067496866
 30
0.0
 11
4083.564670027622
 21
26170.88067496866
 31
0.0
  0
LINE
  5
603
330
1F
100
AcDbEntity
  8
1
100
AcDbLine
 10
6032.797142108844
 20
23670.88067496867
 30
0.0
 11
6032.79714210884
 21
24170.88067496867
 31
0.0
  0
LINE
  5
604
330
1F
100
AcDbEntity
  8
1
100
AcDbLine
 10
5383.05298474844
 20
23670.88067496867
 30
0.0
 11
5383.052984748438
 21
24170.88067496867
 31
0.0
  0
LINE
  5
605
330
1F
100
AcDbEntity
  8
1
100
AcDbLine
 10
4733.308827388035
 20
23670.88067496867
 30
0.0
 11
4733.308827388032
 21
24170.88067496867
 31
0.0
  0
LINE
  5
606
330
1F
100
AcDbEntity
  8
1
100
AcDbLine
 10
4733.308827388037
 20
22670.88067496867
 30
0.0
 11
4733.308827388037
 21
22670.88067496867
 31
0.0
  0
LINE
  5
607
330
1F
100
AcDbEntity
  8
1
100
AcDbLine
 10
4733.308827388037
 20
22670.88067496866
 30
0.0
 11
4733.308827388035
 21
23170.88067496867
 31
0.0
  0
LINE
  5
608
330
1F
100
AcDbEntity
  8
1
100
AcDbLine
 10
5383.052984748442
 20
22670.88067496867
 30
0.0
 11
5383.052984748442
 21
22670.88067496867
 31
0.0
  0
LINE
  5
609
330
1F
100
AcDbEntity
  8
1
100
AcDbLine
 10
5383.052984748442
 20
22670.88067496867
 30
0.0
 11
5383.05298474844
 21
23170.88067496867
 31
0.0
  0
LINE
  5
60A
330
1F
100
AcDbEntity
  8
1
100
AcDbLine
 10
4733.308827388035
 20
23670.88067496867
 30
0.0
 11
4733.308827388035
 21
23670.88067496867
 31
0.0
  0
LINE
  5
60B
330
1F
100
AcDbEntity
  8
1
100
AcDbLine
 10
5383.05298474844
 20
23670.88067496867
 30
0.0
 11
5383.05298474844
 21
23670.88067496867
 31
0.0
  0
LINE
  5
60C
330
1F
100
AcDbEntity
  8
1
100
AcDbLine
 10
6032.797142108846
 20
22670.88067496868
 30
0.0
 11
6032.797142108846
 21
22670.88067496868
 31
0.0
  0
LINE
  5
60D
330
1F
100
AcDbEntity
  8
1
100
AcDbLine
 10
6032.797142108846
 20
22670.88067496867
 30
0.0
 11
6032.797142108844
 21
23170.88067496867
 31
0.0
  0
LINE
  5
60E
330
1F
100
AcDbEntity
  8
1
100
AcDbLine
 10
6032.797142108844
 20
23670.88067496868
 30
0.0
 11
6032.797142108844
 21
23670.88067496868
 31
0.0
  0
LINE
  5
60F
330
1F
100
AcDbEntity
  8
1
100
AcDbLine
 10
4733.308827388031
 20
24670.88067496866
 30
0.0
 11
4733.308827388029
 21
25170.88067496866
 31
0.0
  0
LINE
  5
610
330
1F
100
AcDbEntity
  8
1
100
AcDbLine
 10
5383.052984748435
 20
24670.88067496867
 30
0.0
 11
5383.052984748434
 21
25170.88067496866
 31
0.0
  0
LINE
  5
611
330
1F
100
AcDbEntity
  8
1
100
AcDbLine
 10
4733.308827388031
 20
24670.88067496867
 30
0.0
 11
4733.308827388031
 21
24670.88067496867
 31
0.0
  0
LINE
  5
612
330
1F
100
AcDbEntity
  8
1
100
AcDbLine
 10
5383.052984748435
 20
24670.88067496867
 30
0.0
 11
5383.052984748435
 21
24670.88067496867
 31
0.0
  0
LINE
  5
613
330
1F
100
AcDbEntity
  8
1
100
AcDbLine
 10
6032.79714210884
 20
24670.88067496867
 30
0.0
 11
6032.797142108838
 21
25170.88067496866
 31
0.0
  0
LINE
  5
614
330
1F
100
AcDbEntity
  8
1
100
AcDbLine
 10
6032.79714210884
 20
24670.88067496868
 30
0.0
 11
6032.79714210884
 21
24670.88067496868
 31
0.0
  0
LINE
  5
615
330
1F
100
AcDbEntity
  8
1
100
AcDbLine
 10
6682.541299469247
 20
23670.88067496867
 30
0.0
 11
6682.541299469242
 21
24170.88067496867
 31
0.0
  0
LINE
  5
616
330
1F
100
AcDbEntity
  8
1
100
AcDbLine
 10
6682.541299469247
 20
23670.88067496868
 30
0.0
 11
6682.541299469247
 21
23670.88067496868
 31
0.0
  0
LINE
  5
617
330
1F
100
AcDbEntity
  8
1
100
AcDbLine
 10
6032.797142108838
 20
26670.88067496867
 30
0.0
 11
6032.797142108837
 21
27170.88067496867
 31
0.0
  0
LINE
  5
618
330
1F
100
AcDbEntity
  8
1
100
AcDbLine
 10
4733.308827388029
 20
26670.88067496866
 30
0.0
 11
4733.308827388028
 21
27170.88067496866
 31
0.0
  0
LINE
  5
619
330
1F
100
AcDbEntity
  8
1
100
AcDbLine
 10
5383.052984748434
 20
26670.88067496867
 30
0.0
 11
5383.052984748432
 21
27170.88067496867
 31
0.0
  0
LINE
  5
61A
330
1F
100
AcDbEntity
  8
1
100
AcDbLine
 10
4733.308827388029
 20
25670.88067496867
 30
0.0
 11
4733.308827388029
 21
25670.88067496867
 31
0.0
  0
LINE
  5
61B
330
1F
100
AcDbEntity
  8
1
100
AcDbLine
 10
4733.308827388029
 20
25670.88067496866
 30
0.0
 11
4733.308827388028
 21
26170.88067496866
 31
0.0
  0
LINE
  5
61C
330
1F
100
AcDbEntity
  8
1
100
AcDbLine
 10
5383.052984748434
 20
25670.88067496867
 30
0.0
 11
5383.052984748434
 21
25670.88067496867
 31
0.0
  0
LINE
  5
61D
330
1F
100
AcDbEntity
  8
1
100
AcDbLine
 10
5383.052984748434
 20
25670.88067496867
 30
0.0
 11
5383.052984748432
 21
26170.88067496867
 31
0.0
  0
LINE
  5
61E
330
1F
100
AcDbEntity
  8
1
100
AcDbLine
 10
4733.308827388029
 20
26670.88067496867
 30
0.0
 11
4733.308827388029
 21
26670.88067496867
 31
0.0
  0
LINE
  5
61F
330
1F
100
AcDbEntity
  8
1
100
AcDbLine
 10
5383.052984748434
 20
26670.88067496867
 30
0.0
 11
5383.052984748434
 21
26670.88067496867
 31
0.0
  0
LINE
  5
620
330
1F
100
AcDbEntity
  8
1
100
AcDbLine
 10
6032.797142108838
 20
25670.88067496867
 30
0.0
 11
6032.797142108838
 21
25670.88067496867
 31
0.0
  0
LINE
  5
621
330
1F
100
AcDbEntity
  8
1
100
AcDbLine
 10
6032.797142108838
 20
25670.88067496867
 30
0.0
 11
6032.797142108837
 21
26170.88067496867
 31
0.0
  0
LINE
  5
622
330
1F
100
AcDbEntity
  8
1
100
AcDbLine
 10
6032.797142108838
 20
26670.88067496867
 30
0.0
 11
6032.797142108838
 21
26670.88067496867
 31
0.0
  0
LINE
  5
623
330
1F
100
AcDbEntity
  8
1
100
AcDbLine
 10
6682.541299469241
 20
26670.88067496867
 30
0.0
 11
6682.541299469242
 21
27170.88067496867
 31
0.0
  0
LINE
  5
624
330
1F
100
AcDbEntity
  8
1
100
AcDbLine
 10
6682.541299469242
 20
26670.88067496868
 30
0.0
 11
6682.541299469242
 21
26670.88067496868
 31
0.0
  0
LINE
  5
625
330
1F
100
AcDbEntity
  8
1
100
AcDbLine
 10
6682.541299469241
 20
27670.88067496867
 30
0.0
 11
6682.541299469242
 21
28170.88067496867
 31
0.0
  0
LINE
  5
626
330
1F
100
AcDbEntity
  8
1
100
AcDbLine
 10
6682.541299469242
 20
27670.88067496868
 30
0.0
 11
6682.541299469242
 21
27670.88067496868
 31
0.0
  0
LINE
  5
627
330
1F
100
AcDbEntity
  8
1
100
AcDbLine
 10
1484.578270027623
 20
28670.88067496866
 30
0.0
 11
1484.578270027623
 21
29170.88067496866
 31
0.0
  0
LINE
  5
628
330
1F
100
AcDbEntity
  8
1
100
AcDbLine
 10
2134.324870027623
 20
28670.88067496866
 30
0.0
 11
2134.324870027621
 21
29170.88067496866
 31
0.0
  0
LINE
  5
629
330
1F
100
AcDbEntity
  8
1
100
AcDbLine
 10
2784.071470027622
 20
28670.88067496866
 30
0.0
 11
2784.071470027622
 21
29170.88067496866
 31
0.0
  0
LINE
  5
62A
330
1F
100
AcDbEntity
  8
1
100
AcDbLine
 10
3433.818070027622
 20
28670.88067496866
 30
0.0
 11
3433.818070027622
 21
29170.88067496866
 31
0.0
  0
LINE
  5
62B
330
1F
100
AcDbEntity
  8
1
100
AcDbLine
 10
4083.564670027622
 20
28670.88067496866
 30
0.0
 11
4083.564670027622
 21
29170.88067496866
 31
0.0
  0
LINE
  5
62C
330
1F
100
AcDbEntity
  8
1
100
AcDbLine
 10
4733.308827388029
 20
28670.88067496867
 30
0.0
 11
4733.308827388029
 21
28670.88067496867
 31
0.0
  0
LINE
  5
62D
330
1F
100
AcDbEntity
  8
1
100
AcDbLine
 10
4733.308827388029
 20
28670.88067496866
 30
0.0
 11
4733.308827388028
 21
29170.88067496866
 31
0.0
  0
TEXT
  5
62E
330
1F
100
AcDbEntity
  8
1
100
AcDbText
 10
8432.910636263379
 20
22670.88067496869
 30
0.0
 40
500.0
  1
txt/bigfont右上
  7
KANJI
 72
     2
 11
14666.24396959671
 21
23170.88067496869
 31
0.0
100
AcDbText
 73
     3
  0
TEXT
  5
62F
330
1F
100
AcDbEntity
  8
1
100
AcDbText
 10
8432.910636263379
 20
21670.88067496869
 30
0.0
 40
500.0
  1
txt/bigfont左中央
  7
KANJI
 11
8432.910636263379
 21
21920.88067496869
 31
0.0
100
AcDbText
 73
     2
  0
LINE
  5
630
330
1F
100
AcDbEntity
  8
1
100
AcDbLine
 10
8432.910636263379
 20
22170.88067496869
 30
0.0
 11
15266.24396959671
 21
22170.88067496869
 31
0.0
  0
LINE
  5
631
330
1F
100
AcDbEntity
  8
1
100
AcDbLine
 10
8432.910636263379
 20
21670.88067496869
 30
0.0
 11
15266.24396959671
 21
21670.88067496869
 31
0.0
  0
LINE
  5
632
330
1F
100
AcDbEntity
  8
1
100
AcDbLine
 10
8432.910636263379
 20
20670.8806749687
 30
0.0
 11
14666.24396959671
 21
20670.8806749687
 31
0.0
  0
LINE
  5
633
330
1F
100
AcDbEntity
  8
1
100
AcDbLine
 10
8432.910636263379
 20
21170.8806749687
 30
0.0
 11
14666.24396959671
 21
21170.8806749687
 31
0.0
  0
TEXT
  5
634
330
1F
100
AcDbEntity
  8
1
100
AcDbText
 10
8432.910636263379
 20
20670.8806749687
 30
0.0
 40
500.0000000000003
  1
txt/bigfont中央
  7
KANJI
 72
     1
 11
11549.57730293004
 21
20920.8806749687
 31
0.0
100
AcDbText
 73
     2
  0
LINE
  5
635
330
1F
100
AcDbEntity
  8
1
100
AcDbLine
 10
8432.910636263379
 20
19670.88067496871
 30
0.0
 11
15266.24396959671
 21
19670.88067496871
 31
0.0
  0
LINE
  5
636
330
1F
100
AcDbEntity
  8
1
100
AcDbLine
 10
8432.910636263379
 20
20170.88067496871
 30
0.0
 11
15266.24396959671
 21
20170.88067496871
 31
0.0
  0
TEXT
  5
637
330
1F
100
AcDbEntity
  8
1
100
AcDbText
 10
8432.910636263379
 20
19670.88067496871
 30
0.0
 40
500.0
  1
txt/bigfont右中央
  7
KANJI
 72
     2
 11
15266.24396959671
 21
19920.88067496871
 31
0.0
100
AcDbText
 73
     2
  0
TEXT
  5
638
330
1F
100
AcDbEntity
  8
1
100
AcDbText
 10
8432.910636263379
 20
18737.54734163539
 30
0.0
 40
500.0
  1
txt/bigfont左下
  7
KANJI
 11
8432.910636263379
 21
18670.88067496872
 31
0.0
100
AcDbText
 73
     1
  0
LINE
  5
639
330
1F
100
AcDbEntity
  8
1
100
AcDbLine
 10
8432.910636263379
 20
19170.88067496872
 30
0.0
 11
14666.24396959671
 21
19170.88067496872
 31
0.0
  0
LINE
  5
63A
330
1F
100
AcDbEntity
  8
1
100
AcDbLine
 10
8432.910636263379
 20
18670.88067496872
 30
0.0
 11
14666.24396959671
 21
18670.88067496872
 31
0.0
  0
TEXT
  5
63B
330
1F
100
AcDbEntity
  8
1
100
AcDbText
 10
8432.910636263379
 20
17670.88067496874
 30
0.0
 40
500.0
  1
txt/bigfont下中心
  7
KANJI
 72
     1
 11
11849.57730293004
 21
17604.21400830207
 31
0.0
100
AcDbText
 73
     1
  0
LINE
  5
63C
330
1F
100
AcDbEntity
  8
1
100
AcDbLine
 10
8432.910636263379
 20
18170.88067496873
 30
0.0
 11
15266.24396959671
 21
18170.88067496873
 31
0.0
  0
LINE
  5
63D
330
1F
100
AcDbEntity
  8
1
100
AcDbLine
 10
8432.910636263379
 20
17670.88067496874
 30
0.0
 11
15266.24396959671
 21
17670.88067496873
 31
0.0
  0
TEXT
  5
63E
330
1F
100
AcDbEntity
  8
1
100
AcDbText
 10
8432.910636263384
 20
16670.88067496875
 30
0.0
 40
500.0
  1
txt/bigfont右下
  7
KANJI
 72
     2
 11
14666.24396959671
 21
16604.21400830208
 31
0.0
100
AcDbText
 73
     1
  0
LINE
  5
63F
330
1F
100
AcDbEntity
  8
1
100
AcDbLine
 10
8432.910636263379
 20
16670.88067496875
 30
0.0
 11
14666.24396959671
 21
16670.88067496874
 31
0.0
  0
LINE
  5
640
330
1F
100
AcDbEntity
  8
1
100
AcDbLine
 10
8432.910636263379
 20
17170.88067496875
 30
0.0
 11
14666.24396959671
 21
17170.88067496875
 31
0.0
  0
LINE
  5
641
330
1F
100
AcDbEntity
  8
1
100
AcDbLine
 10
8432.910636263379
 20
16670.88067496875
 30
0.0
 11
8432.910636263379
 21
17170.88067496874
 31
0.0
  0
LINE
  5
642
330
1F
100
AcDbEntity
  8
0
100
AcDbLine
 10
8432.910636263384
 20
13184.11129932598
 30
0.0
 11
12965.81622044203
 21
13184.11129932597
 31
0.0
  0
LINE
  5
643
330
1F
100
AcDbEntity
  8
1
100
AcDbLine
 10
8432.910636263384
 20
14517.44463265931
 30
0.0
 11
12965.81622044203
 21
14517.44463265931
 31
0.0
  0
MTEXT
  5
644
330
1F
100
AcDbEntity
  8
1
100
AcDbMText
 10
8432.910636263384
 20
14517.44463265931
 30
0.0
 40
500.0
 41
4532.905584178652
 71
     1
 72
     1
  1
2行の\Pマルチテキスト
  7
KANJI
1001
ACAD
1000
MTEXTBEGIN
1070
    73
1070
     1
1070
    44
1040
1.0
1070
    74
1070
     0
1000
MTEXTEND
1000
MTEXTBEGIN
1070
    73
1070
     1
1070
    44
1040
1.0
1070
    74
1070
     0
1000
MTEXTEND
1000
MTEXTBEGIN
1070
    73
1070
     1
1070
    44
1040
1.0
1070
    74
1070
     0
1000
MTEXTEND
  0
LINE
  5
645
330
1F
100
AcDbEntity
  8
1
100
AcDbLine
 10
8432.910636263384
 20
15140.89629083319
 30
0.0
 11
14166.24396959671
 21
15140.89629083319
 31
0.0
  0
TEXT
  5
646
330
1F
100
AcDbEntity
  8
1
100
AcDbText
 10
8432.910636263384
 20
15140.89629083319
 30
0.0
 40
1000.0
  1
高さを確認
  7
KANJI
 72
     2
 11
14166.24396959671
 21
15140.89629083319
 31
0.0
100
AcDbText
  0
LINE
  5
647
330
1F
100
AcDbEntity
  8
1
100
AcDbLine
 10
8432.910636263384
 20
16140.89629083319
 30
0.0
 11
14166.24396959671
 21
16140.89629083319
 31
0.0
  0
LINE
  5
648
330
1F
100
AcDbEntity
  8
1
100
AcDbLine
 10
8432.910636263384
 20
14517.44463265931
 30
0.0
 11
8432.910636263384
 21
13184.11129932598
 31
0.0
  0
LINE
  5
649
330
1F
100
AcDbEntity
  8
1
100
AcDbLine
 10
8432.910636263384
 20
15140.89629083319
 30
0.0
 11
8432.910636263384
 21
16140.89629083319
 31
0.0
  0
LINE
  5
64A
330
1F
100
AcDbEntity
  8
1
100
AcDbLine
 10
12965.81622044203
 20
13184.11129932597
 30
0.0
 11
12965.81622044203
 21
14517.44463265931
 31
0.0
  0
LINE
  5
64D
330
1F
100
AcDbEntity
  8
1
100
AcDbLine
 10
14166.24396959671
 20
15140.89629083319
 30
0.0
 11
14166.24396959671
 21
16140.89629083319
 31
0.0
  0
LINE
  5
64E
330
1F
100
AcDbEntity
  8
1
100
AcDbLine
 10
8432.910636263379
 20
19670.88067496871
 30
0.0
 11
8432.910636263379
 21
20170.88067496871
 31
0.0
  0
LINE
  5
64F
330
1F
100
AcDbEntity
  8
1
100
AcDbLine
 10
8432.910636263379
 20
17670.88067496874
 30
0.0
 11
8432.910636263379
 21
18170.88067496873
 31
0.0
  0
LINE
  5
650
330
1F
100
AcDbEntity
  8
1
100
AcDbLine
 10
8432.910636263379
 20
18670.88067496872
 30
0.0
 11
8432.910636263379
 21
19170.88067496872
 31
0.0
  0
LINE
  5
651
330
1F
100
AcDbEntity
  8
1
100
AcDbLine
 10
8432.910636263379
 20
20670.8806749687
 30
0.0
 11
8432.910636263379
 21
21170.8806749687
 31
0.0
  0
LINE
  5
652
330
1F
100
AcDbEntity
  8
1
100
AcDbLine
 10
8432.910636263379
 20
21670.88067496869
 30
0.0
 11
8432.910636263379
 21
22170.88067496869
 31
0.0
  0
LINE
  5
653
330
1F
100
AcDbEntity
  8
1
100
AcDbLine
 10
14666.24396959671
 20
16670.88067496874
 30
0.0
 11
14666.24396959671
 21
17170.88067496875
 31
0.0
  0
LINE
  5
654
330
1F
100
AcDbEntity
  8
1
100
AcDbLine
 10
15266.24396959671
 20
19670.88067496871
 30
0.0
 11
15266.24396959671
 21
20170.88067496871
 31
0.0
  0
LINE
  5
655
330
1F
100
AcDbEntity
  8
1
100
AcDbLine
 10
15266.24396959671
 20
17670.88067496873
 30
0.0
 11
15266.24396959671
 21
18170.88067496873
 31
0.0
  0
LINE
  5
656
330
1F
100
AcDbEntity
  8
1
100
AcDbLine
 10
14666.24396959671
 20
18670.88067496872
 30
0.0
 11
14666.24396959671
 21
19170.88067496872
 31
0.0
  0
LINE
  5
657
330
1F
100
AcDbEntity
  8
1
100
AcDbLine
 10
14666.24396959671
 20
20670.8806749687
 30
0.0
 11
14666.24396959671
 21
21170.8806749687
 31
0.0
  0
LINE
  5
658
330
1F
100
AcDbEntity
  8
1
100
AcDbLine
 10
15266.24396959671
 20
21670.88067496869
 30
0.0
 11
15266.24396959671
 21
22170.88067496869
 31
0.0
  0
LINE
  5
659
330
1F
100
AcDbEntity
  8
1
100
AcDbLine
 10
8432.910636263379
 20
26670.88067496867
 30
0.0
 11
15232.91063626337
 21
26670.88067496866
 31
0.0
  0
LINE
  5
65A
330
1F
100
AcDbEntity
  8
1
100
AcDbLine
 10
8432.910636263379
 20
27170.88067496867
 30
0.0
 11
15232.91063626337
 21
27170.88067496867
 31
0.0
  0
TEXT
  5
65B
330
1F
100
AcDbEntity
  8
1
100
AcDbText
 10
8432.910636263381
 20
26670.88067496867
 30
0.0
 40
500.0
  1
txt/bigfont右寄せ
  7
KANJI
 72
     2
 11
15232.91063626337
 21
26670.88067496867
 31
0.0
100
AcDbText
  0
TEXT
  5
65C
330
1F
100
AcDbEntity
  8
1
100
AcDbText
 10
8432.910636263379
 20
25670.88067496867
 30
0.0
 40
500.0
  1
txt/bigfont中央
  7
KANJI
 72
     2
 11
14666.24396959671
 21
25670.88067496867
 31
0.0
100
AcDbText
  0
LINE
  5
65D
330
1F
100
AcDbEntity
  8
1
100
AcDbLine
 10
8432.910636263379
 20
25670.88067496867
 30
0.0
 11
14666.24396959671
 21
25670.88067496867
 31
0.0
  0
LINE
  5
65E
330
1F
100
AcDbEntity
  8
1
100
AcDbLine
 10
8432.910636263379
 20
26170.88067496867
 30
0.0
 11
14666.24396959671
 21
26170.88067496867
 31
0.0
  0
LINE
  5
65F
330
1F
100
AcDbEntity
  8
1
100
AcDbLine
 10
8432.910636263379
 20
24670.88067496868
 30
0.0
 11
14666.24396959671
 21
24670.88067496868
 31
0.0
  0
LINE
  5
660
330
1F
100
AcDbEntity
  8
1
100
AcDbLine
 10
8432.910636263379
 20
25170.88067496868
 30
0.0
 11
14666.24396959671
 21
25170.88067496868
 31
0.0
  0
TEXT
  5
661
330
1F
100
AcDbEntity
  8
1
100
AcDbText
 10
8432.910636263379
 20
24670.88067496868
 30
0.0
 40
500.0
  1
txt/bigfont左上
  7
KANJI
 11
8432.910636263379
 21
25170.88067496868
 31
0.0
100
AcDbText
 73
     3
  0
TEXT
  5
662
330
1F
100
AcDbEntity
  8
1
100
AcDbText
 10
8432.910636263379
 20
27670.88067496866
 30
0.0
 40
500.0
  1
txt/bigfontフィット
 41
0.9272727272727273
  7
KANJI
 72
     5
 11
15232.91063626337
 21
27670.88067496866
 31
0.0
100
AcDbText
  0
LINE
  5
663
330
1F
100
AcDbEntity
  8
1
100
AcDbLine
 10
8432.910636263379
 20
27670.88067496866
 30
0.0
 11
15232.91063626337
 21
27670.88067496866
 31
0.0
  0
LINE
  5
664
330
1F
100
AcDbEntity
  8
1
100
AcDbLine
 10
8432.910636263379
 20
28170.88067496867
 30
0.0
 11
15232.91063626337
 21
28170.88067496867
 31
0.0
  0
LINE
  5
665
330
1F
100
AcDbEntity
  8
1
100
AcDbLine
 10
8432.910636263379
 20
22670.88067496869
 30
0.0
 11
14666.24396959671
 21
22670.88067496868
 31
0.0
  0
LINE
  5
666
330
1F
100
AcDbEntity
  8
1
100
AcDbLine
 10
8432.910636263379
 20
23170.88067496869
 30
0.0
 11
14666.24396959671
 21
23170.88067496869
 31
0.0
  0
LINE
  5
667
330
1F
100
AcDbEntity
  8
1
100
AcDbLine
 10
8432.910636263379
 20
23670.88067496868
 30
0.0
 11
15266.24396959671
 21
23670.88067496868
 31
0.0
  0
LINE
  5
668
330
1F
100
AcDbEntity
  8
1
100
AcDbLine
 10
8432.910636263379
 20
24170.88067496869
 30
0.0
 11
15266.24396959671
 21
24170.88067496869
 31
0.0
  0
TEXT
  5
669
330
1F
100
AcDbEntity
  8
1
100
AcDbText
 10
8432.910636263379
 20
23670.88067496868
 30
0.0
 40
500.0
  1
txt/bigfont上中心
  7
KANJI
 72
     1
 11
11849.57730293004
 21
24170.88067496869
 31
0.0
100
AcDbText
 73
     3
  0
TEXT
  5
66A
330
1F
100
AcDbEntity
  8
1
100
AcDbText
 10
8432.910636263379
 20
28670.88067496867
 30
0.0
 40
500.0
  1
txt/bigfont
  7
KANJI
100
AcDbText
  0
LINE
  5
66B
330
1F
100
AcDbEntity
  8
1
100
AcDbLine
 10
8432.910636263379
 20
23670.88067496868
 30
0.0
 11
8432.910636263379
 21
24170.88067496868
 31
0.0
  0
LINE
  5
66C
330
1F
100
AcDbEntity
  8
1
100
AcDbLine
 10
8432.910636263379
 20
22670.88067496869
 30
0.0
 11
8432.910636263379
 21
23170.88067496869
 31
0.0
  0
LINE
  5
66D
330
1F
100
AcDbEntity
  8
1
100
AcDbLine
 10
8432.910636263379
 20
24670.88067496868
 30
0.0
 11
8432.910636263379
 21
25170.88067496867
 31
0.0
  0
LINE
  5
66E
330
1F
100
AcDbEntity
  8
1
100
AcDbLine
 10
8432.910636263379
 20
26670.88067496867
 30
0.0
 11
8432.910636263379
 21
27170.88067496866
 31
0.0
  0
LINE
  5
66F
330
1F
100
AcDbEntity
  8
1
100
AcDbLine
 10
8432.910636263379
 20
25670.88067496867
 30
0.0
 11
8432.910636263379
 21
26170.88067496867
 31
0.0
  0
LINE
  5
670
330
1F
100
AcDbEntity
  8
1
100
AcDbLine
 10
8432.910636263379
 20
27670.88067496866
 30
0.0
 11
8432.910636263379
 21
28170.88067496866
 31
0.0
  0
LINE
  5
671
330
1F
100
AcDbEntity
  8
1
100
AcDbLine
 10
8432.910636263379
 20
29170.88067496867
 30
0.0
 11
13432.91063626337
 21
29170.88067496867
 31
0.0
  0
LINE
  5
672
330
1F
100
AcDbEntity
  8
1
100
AcDbLine
 10
8432.910636263379
 20
28670.88067496867
 30
0.0
 11
13432.91063626337
 21
28670.88067496867
 31
0.0
  0
LINE
  5
673
330
1F
100
AcDbEntity
  8
1
100
AcDbLine
 10
8432.910636263379
 20
28670.88067496867
 30
0.0
 11
8432.910636263379
 21
29170.88067496866
 31
0.0
  0
LINE
  5
674
330
1F
100
AcDbEntity
  8
1
100
AcDbLine
 10
13432.91063626337
 20
28670.88067496867
 30
0.0
 11
13432.91063626337
 21
29170.88067496867
 31
0.0
  0
LINE
  5
675
330
1F
100
AcDbEntity
  8
1
100
AcDbLine
 10
15266.24396959671
 20
23670.88067496868
 30
0.0
 11
15266.24396959671
 21
24170.88067496869
 31
0.0
  0
LINE
  5
676
330
1F
100
AcDbEntity
  8
1
100
AcDbLine
 10
14666.24396959671
 20
22670.88067496868
 30
0.0
 11
14666.24396959671
 21
23170.88067496869
 31
0.0
  0
LINE
  5
677
330
1F
100
AcDbEntity
  8
1
100
AcDbLine
 10
14666.24396959671
 20
24670.88067496868
 30
0.0
 11
14666.24396959671
 21
25170.88067496868
 31
0.0
  0
LINE
  5
678
330
1F
100
AcDbEntity
  8
1
100
AcDbLine
 10
15232.91063626337
 20
26670.88067496866
 30
0.0
 11
15232.91063626337
 21
27170.88067496867
 31
0.0
  0
LINE
  5
679
330
1F
100
AcDbEntity
  8
1
100
AcDbLine
 10
14666.24396959671
 20
25670.88067496867
 30
0.0
 11
14666.24396959671
 21
26170.88067496867
 31
0.0
  0
LINE
  5
67A
330
1F
100
AcDbEntity
  8
1
100
AcDbLine
 10
15232.91063626337
 20
27670.88067496866
 30
0.0
 11
15232.91063626337
 21
28170.88067496867
 31
0.0
  0
LINE
  5
67D
330
1F
100
AcDbEntity
  8
0
100
AcDbLine
 10
17739.86399912307
 20
23517.20600900591
 30
0.0
 11
17739.86399912307
 21
23517.20600900591
 31
0.0
  0
LINE
  5
67E
330
1F
100
AcDbEntity
  8
0
100
AcDbLine
 10
17739.86399912307
 20
23517.20600900591
 30
0.0
 11
17739.86399912307
 21
23517.20600900591
 31
0.0
  0
LINE
  5
680
330
1F
100
AcDbEntity
  8
0
100
AcDbLine
 10
17739.86399912307
 20
23517.2060090059
 30
0.0
 11
18739.86399912308
 21
23517.2060090059
 31
0.0
  0
TEXT
  5
681
330
1F
100
AcDbEntity
  8
1
100
AcDbText
 10
25683.30873463529
 20
21085.43881712126
 30
0.0
 40
500.0
  1
txt/bigfont右上
  7
KANJI3
 72
     2
 11
25683.30873463529
 21
12102.10548378793
 31
0.0
100
AcDbText
 73
     3
  0
TEXT
  5
685
330
1F
100
AcDbEntity
  8
1
100
AcDbText
 10
21683.30873463532
 20
21085.43881712126
 30
0.0
 40
500.0
  1
txt/bigfont左下
  7
KANJI3
 11
21683.30873463532
 21
21085.43881712126
 31
0.0
100
AcDbText
 73
     1
  0
TEXT
  5
686
330
1F
100
AcDbEntity
  8
1
100
AcDbText
 10
22683.30873463531
 20
21085.43881712126
 30
0.0
 40
500.0
  1
txt/bigfont右中央
  7
KANJI3
 72
     2
 11
22683.30873463531
 21
11468.7721504546
 31
0.0
100
AcDbText
 73
     2
  0
TEXT
  5
689
330
1F
100
AcDbEntity
  8
1
100
AcDbText
 10
23683.3087346353
 20
21085.43881712126
 30
0.0
 40
500.0
  1
txt/bigfont中央
  7
KANJI3
 72
     1
 11
23683.3087346353
 21
16577.10548378792
 31
0.0
100
AcDbText
 73
     2
  0
TEXT
  5
68E
330
1F
100
AcDbEntity
  8
1
100
AcDbText
 10
24683.3087346353
 20
21085.43881712126
 30
0.0
 40
500.0
  1
txt/bigfont左中央
  7
KANJI3
 11
24683.3087346353
 21
21085.43881712126
 31
0.0
100
AcDbText
 73
     2
  0
TEXT
  5
697
330
1F
100
AcDbEntity
  8
1
100
AcDbText
 10
26683.30873463528
 20
21085.43881712126
 30
0.0
 40
500.0
  1
txt/bigfont上中心
  7
KANJI3
 72
     1
 11
26683.30873463528
 21
16277.10548378793
 31
0.0
100
AcDbText
 73
     3
  0
TEXT
  5
69E
330
1F
100
AcDbEntity
  8
1
100
AcDbText
 10
30683.30873463527
 20
21085.43881712126
 30
0.0
 40
500.0
  1
txt/bigfontフィット
 41
0.6677577741407528
  7
KANJI3
 72
     2
 11
30683.30873463527
 21
10902.10548378792
 31
0.0
100
AcDbText
  0
TEXT
  5
69F
330
1F
100
AcDbEntity
  8
1
100
AcDbText
 10
27683.30873463528
 20
21085.43881712126
 30
0.0
 40
500.0
  1
txt/bigfont左上
  7
KANJI3
 11
27683.30873463528
 21
21085.43881712126
 31
0.0
100
AcDbText
 73
     3
  0
LINE
  5
6A2
330
1F
100
AcDbEntity
  8
1
100
AcDbLine
 10
28933.30873463527
 20
21085.43881712126
 30
0.0
 11
28933.30873463527
 21
12068.77215045459
 31
0.0
  0
LINE
  5
6A3
330
1F
100
AcDbEntity
  8
1
100
AcDbLine
 10
28433.30873463527
 20
21085.43881712126
 30
0.0
 11
28433.30873463526
 21
12068.77215045459
 31
0.0
  0
TEXT
  5
6A4
330
1F
100
AcDbEntity
  8
1
100
AcDbText
 10
28683.30873463527
 20
21085.43881712126
 30
0.0
 40
500.0
  1
txt/bigfont中央
  7
KANJI3
 72
     2
 11
28683.30873463527
 21
12068.77215045459
 31
0.0
100
AcDbText
  0
TEXT
  5
6A5
330
1F
100
AcDbEntity
  8
1
100
AcDbText
 10
29683.30873463527
 20
21085.43881712126
 30
0.0
 40
500.0
  1
txt/bigfont右寄せ
  7
KANJI3
 72
     2
 11
29683.30873463527
 21
11502.10548378792
 31
0.0
100
AcDbText
  0
TEXT
  5
6A8
330
1F
100
AcDbEntity
  8
1
100
AcDbText
 10
31683.30873463526
 20
21085.43881712126
 30
0.0
 40
500.0
  1
txt/bigfont
  7
KANJI3
 72
     2
 11
31683.30873463526
 21
13418.77215045459
 31
0.0
100
AcDbText
  0
TEXT
  5
6BB
330
1F
100
AcDbEntity
  8
1
100
AcDbText
 10
19683.30873463535
 20
21085.43881712126
 30
0.0
 40
500.0
  1
txt/bigfont右下
  7
KANJI3
 72
     2
 11
19683.30873463535
 21
12068.7721504546
 31
0.0
100
AcDbText
 73
     1
  0
TEXT
  5
6BD
330
1F
100
AcDbEntity
  8
1
100
AcDbText
 10
20683.30873463533
 20
21085.43881712126
 30
0.0
 40
500.0
  1
txt/bigfont下中心
  7
KANJI3
 72
     1
 11
20683.30873463533
 21
16277.10548378793
 31
0.0
100
AcDbText
 73
     1
  0
LINE
  5
6BF
330
1F
100
AcDbEntity
  8
1
100
AcDbLine
 10
18903.3243504998
 20
21085.43881712126
 30
0.0
 11
18903.3243504998
 21
16485.43881712126
 31
0.0
  0
TEXT
  5
6C0
330
1F
100
AcDbEntity
  8
1
100
AcDbText
 10
18403.3243504998
 20
21085.43881712126
 30
0.0
 40
1000.0
  1
幅を確認
  7
KANJI3
100
AcDbText
  0
LINE
  5
6C1
330
1F
100
AcDbEntity
  8
1
100
AcDbLine
 10
17903.3243504998
 20
21085.43881712126
 30
0.0
 11
17903.3243504998
 21
16485.43881712126
 31
0.0
  0
MTEXT
  5
6C2
330
1F
100
AcDbEntity
  8
1
100
AcDbMText
 10
15946.53935899258
 20
21085.43881712126
 30
0.0
 40
500.0
 41
6072.728764697807
 71
     1
 72
     3
  1
2行の\Pマルチテキスト
  7
KANJI3
1001
ACAD
1000
MTEXTBEGIN
1070
    73
1070
     1
1070
    44
1040
1.0
1070
    74
1070
     0
1000
MTEXTEND
1000
MTEXTBEGIN
1070
    73
1070
     1
1070
    44
1040
1.0
1070
    74
1070
     0
1000
MTEXTEND
1000
MTEXTBEGIN
1070
    73
1070
     1
1070
    44
1040
1.0
1070
    74
1070
     0
1000
MTEXTEND
  0
LINE
  5
6C3
330
1F
100
AcDbEntity
  8
1
100
AcDbLine
 10
17479.87269232592
 20
21085.43881712126
 30
0.0
 11
17479.87269232592
 21
15002.24551827521
 31
0.0
  0
LINE
  5
6C4
330
1F
100
AcDbEntity
  8
0
100
AcDbLine
 10
15946.53935899258
 20
21085.43881712126
 30
0.0
 11
15946.53935899257
 21
15002.24551827521
 31
0.0
  0
LINE
  5
6C5
330
1F
100
AcDbEntity
  8
1
100
AcDbLine
 10
17479.87269232592
 20
21085.43881712126
 30
0.0
 11
15946.53935899258
 21
21085.43881712126
 31
0.0
  0
LINE
  5
6C6
330
1F
100
AcDbEntity
  8
1
100
AcDbLine
 10
17903.3243504998
 20
21085.43881712126
 30
0.0
 11
18903.3243504998
 21
21085.43881712126
 31
0.0
  0
LINE
  5
6C7
330
1F
100
AcDbEntity
  8
1
100
AcDbLine
 10
15946.53935899257
 20
15002.24551827521
 30
0.0
 11
17479.87269232592
 21
15002.24551827521
 31
0.0
  0
LINE
  5
6CC
330
1F
100
AcDbEntity
  8
0
100
AcDbLine
 10
17903.3243504998
 20
16485.43881712126
 30
0.0
 11
18903.3243504998
 21
16485.43881712126
 31
0.0
  0
LINE
  5
6CD
330
1F
100
AcDbEntity
  8
0
100
AcDbLine
 10
28433.30873463526
 20
12068.77215045459
 30
0.0
 11
28933.30873463527
 21
12068.77215045459
 31
0.0
  0
LINE
  5
6CF
330
1F
100
AcDbEntity
  8
0
100
AcDbLine
 10
28433.30873463527
 20
21085.43881712126
 30
0.0
 11
28933.30873463527
 21
21085.43881712126
 31
0.0
  0
LINE
  5
6D0
330
1F
100
AcDbEntity
  8
1
100
AcDbLine
 10
27433.30873463527
 20
21085.43881712126
 30
0.0
 11
27433.30873463527
 21
12102.10548378793
 31
0.0
  0
LINE
  5
6D1
330
1F
100
AcDbEntity
  8
1
100
AcDbLine
 10
27933.30873463528
 20
21085.43881712126
 30
0.0
 11
27933.30873463527
 21
12102.10548378793
 31
0.0
  0
LINE
  5
6D3
330
1F
100
AcDbEntity
  8
0
100
AcDbLine
 10
27433.30873463527
 20
21085.43881712126
 30
0.0
 11
27933.30873463528
 21
21085.43881712126
 31
0.0
  0
LINE
  5
6D4
330
1F
100
AcDbEntity
  8
0
100
AcDbLine
 10
26433.30873463528
 20
21085.43881712126
 30
0.0
 11
26933.30873463528
 21
21085.43881712126
 31
0.0
  0
LINE
  5
6D8
330
1F
100
AcDbEntity
  8
0
100
AcDbLine
 10
25433.30873463528
 20
21085.43881712126
 30
0.0
 11
25933.30873463528
 21
21085.43881712126
 31
0.0
  0
LINE
  5
6D9
330
1F
100
AcDbEntity
  8
0
100
AcDbLine
 10
25433.30873463527
 20
12102.10548378793
 30
0.0
 11
25933.30873463528
 21
12102.10548378793
 31
0.0
  0
LINE
  5
6DA
330
1F
100
AcDbEntity
  8
1
100
AcDbLine
 10
25433.30873463528
 20
21085.43881712126
 30
0.0
 11
25433.30873463527
 21
12102.10548378793
 31
0.0
  0
LINE
  5
6DB
330
1F
100
AcDbEntity
  8
1
100
AcDbLine
 10
25933.30873463528
 20
21085.43881712126
 30
0.0
 11
25933.30873463528
 21
12102.10548378793
 31
0.0
  0
LINE
  5
6DC
330
1F
100
AcDbEntity
  8
0
100
AcDbLine
 10
24433.30873463529
 20
21085.43881712126
 30
0.0
 11
24933.30873463529
 21
21085.43881712126
 31
0.0
  0
LINE
  5
6F0
330
1F
100
AcDbEntity
  8
0
100
AcDbLine
 10
27433.30873463527
 20
12102.10548378793
 30
0.0
 11
27933.30873463527
 21
12102.10548378793
 31
0.0
  0
LINE
  5
6F1
330
1F
100
AcDbEntity
  8
1
100
AcDbLine
 10
29433.30873463527
 20
21085.43881712126
 30
0.0
 11
29433.30873463526
 21
11502.10548378793
 31
0.0
  0
LINE
  5
6F2
330
1F
100
AcDbEntity
  8
1
100
AcDbLine
 10
29933.30873463527
 20
21085.43881712126
 30
0.0
 11
29933.30873463527
 21
11502.10548378792
 31
0.0
  0
LINE
  5
6F3
330
1F
100
AcDbEntity
  8
0
100
AcDbLine
 10
29433.30873463526
 20
11502.10548378793
 30
0.0
 11
29933.30873463527
 21
11502.10548378792
 31
0.0
  0
LINE
  5
6F4
330
1F
100
AcDbEntity
  8
0
100
AcDbLine
 10
29433.30873463527
 20
21085.43881712126
 30
0.0
 11
29933.30873463527
 21
21085.43881712126
 31
0.0
  0
LINE
  5
6FA
330
1F
100
AcDbEntity
  8
1
100
AcDbLine
 10
26433.30873463528
 20
21085.43881712126
 30
0.0
 11
26433.30873463528
 21
11468.7721504546
 31
0.0
  0
LINE
  5
6FB
330
1F
100
AcDbEntity
  8
1
100
AcDbLine
 10
26933.30873463528
 20
21085.43881712126
 30
0.0
 11
26933.30873463528
 21
11468.7721504546
 31
0.0
  0
LINE
  5
6FD
330
1F
100
AcDbEntity
  8
0
100
AcDbLine
 10
26433.30873463528
 20
21085.43881712126
 30
0.0
 11
26933.30873463528
 21
21085.43881712126
 31
0.0
  0
LINE
  5
6FE
330
1F
100
AcDbEntity
  8
0
100
AcDbLine
 10
26433.30873463528
 20
11468.7721504546
 30
0.0
 11
26933.30873463528
 21
11468.7721504546
 31
0.0
  0
LINE
  5
6FF
330
1F
100
AcDbEntity
  8
1
100
AcDbLine
 10
24433.30873463529
 20
21085.43881712126
 30
0.0
 11
24433.30873463529
 21
11468.7721504546
 31
0.0
  0
LINE
  5
700
330
1F
100
AcDbEntity
  8
1
100
AcDbLine
 10
24933.30873463529
 20
21085.43881712126
 30
0.0
 11
24933.30873463528
 21
11468.7721504546
 31
0.0
  0
LINE
  5
701
330
1F
100
AcDbEntity
  8
0
100
AcDbLine
 10
24433.30873463529
 20
11468.7721504546
 30
0.0
 11
24933.30873463528
 21
11468.7721504546
 31
0.0
  0
LINE
  5
702
330
1F
100
AcDbEntity
  8
0
100
AcDbLine
 10
24433.30873463529
 20
21085.43881712126
 30
0.0
 11
24933.30873463529
 21
21085.43881712126
 31
0.0
  0
LINE
  5
703
330
1F
100
AcDbEntity
  8
0
100
AcDbLine
 10
24433.30873463529
 20
21085.43881712126
 30
0.0
 11
24933.30873463529
 21
21085.43881712126
 31
0.0
  0
LINE
  5
704
330
1F
100
AcDbEntity
  8
1
100
AcDbLine
 10
23433.30873463529
 20
21085.43881712126
 30
0.0
 11
23433.30873463528
 21
12068.77215045459
 31
0.0
  0
LINE
  5
705
330
1F
100
AcDbEntity
  8
1
100
AcDbLine
 10
23933.30873463529
 20
21085.43881712126
 30
0.0
 11
23933.30873463529
 21
12068.77215045459
 31
0.0
  0
LINE
  5
706
330
1F
100
AcDbEntity
  8
0
100
AcDbLine
 10
23433.30873463528
 20
12068.77215045459
 30
0.0
 11
23933.30873463529
 21
12068.77215045459
 31
0.0
  0
LINE
  5
707
330
1F
100
AcDbEntity
  8
0
100
AcDbLine
 10
23433.30873463529
 20
21085.43881712126
 30
0.0
 11
23933.30873463529
 21
21085.43881712126
 31
0.0
  0
LINE
  5
708
330
1F
100
AcDbEntity
  8
1
100
AcDbLine
 10
22933.3087346353
 20
21085.43881712126
 30
0.0
 11
22933.30873463529
 21
11468.7721504546
 31
0.0
  0
LINE
  5
709
330
1F
100
AcDbEntity
  8
1
100
AcDbLine
 10
22433.30873463529
 20
21085.43881712126
 30
0.0
 11
22433.30873463529
 21
11468.7721504546
 31
0.0
  0
LINE
  5
70A
330
1F
100
AcDbEntity
  8
0
100
AcDbLine
 10
22433.30873463529
 20
11468.7721504546
 30
0.0
 11
22933.30873463529
 21
11468.7721504546
 31
0.0
  0
LINE
  5
70B
330
1F
100
AcDbEntity
  8
0
100
AcDbLine
 10
22433.30873463529
 20
21085.43881712126
 30
0.0
 11
22933.3087346353
 21
21085.43881712126
 31
0.0
  0
LINE
  5
70C
330
1F
100
AcDbEntity
  8
0
100
AcDbLine
 10
22433.30873463529
 20
21085.43881712126
 30
0.0
 11
22933.3087346353
 21
21085.43881712126
 31
0.0
  0
LINE
  5
70D
330
1F
100
AcDbEntity
  8
0
100
AcDbLine
 10
22433.30873463529
 20
21085.43881712126
 30
0.0
 11
22933.3087346353
 21
21085.43881712126
 31
0.0
  0
LINE
  5
70E
330
1F
100
AcDbEntity
  8
1
100
AcDbLine
 10
21933.3087346353
 20
21085.43881712126
 30
0.0
 11
21933.30873463529
 21
12068.77215045459
 31
0.0
  0
LINE
  5
70F
330
1F
100
AcDbEntity
  8
1
100
AcDbLine
 10
21433.3087346353
 20
21085.43881712126
 30
0.0
 11
21433.30873463529
 21
12068.77215045459
 31
0.0
  0
LINE
  5
710
330
1F
100
AcDbEntity
  8
0
100
AcDbLine
 10
21433.30873463529
 20
12068.77215045459
 30
0.0
 11
21933.30873463529
 21
12068.77215045459
 31
0.0
  0
LINE
  5
711
330
1F
100
AcDbEntity
  8
0
100
AcDbLine
 10
21433.3087346353
 20
21085.43881712126
 30
0.0
 11
21933.3087346353
 21
21085.43881712126
 31
0.0
  0
LINE
  5
712
330
1F
100
AcDbEntity
  8
1
100
AcDbLine
 10
20433.3087346353
 20
21085.43881712126
 30
0.0
 11
20433.3087346353
 21
11468.7721504546
 31
0.0
  0
LINE
  5
713
330
1F
100
AcDbEntity
  8
1
100
AcDbLine
 10
20933.3087346353
 20
21085.43881712126
 30
0.0
 11
20933.3087346353
 21
11468.7721504546
 31
0.0
  0
LINE
  5
714
330
1F
100
AcDbEntity
  8
0
100
AcDbLine
 10
20433.3087346353
 20
11468.7721504546
 30
0.0
 11
20933.3087346353
 21
11468.7721504546
 31
0.0
  0
LINE
  5
715
330
1F
100
AcDbEntity
  8
0
100
AcDbLine
 10
20433.3087346353
 20
21085.43881712126
 30
0.0
 11
20933.3087346353
 21
21085.43881712126
 31
0.0
  0
LINE
  5
716
330
1F
100
AcDbEntity
  8
0
100
AcDbLine
 10
20433.3087346353
 20
21085.43881712126
 30
0.0
 11
20933.3087346353
 21
21085.43881712126
 31
0.0
  0
LINE
  5
717
330
1F
100
AcDbEntity
  8
1
100
AcDbLine
 10
19433.30873463531
 20
21085.43881712126
 30
0.0
 11
19433.3087346353
 21
12068.77215045459
 31
0.0
  0
LINE
  5
718
330
1F
100
AcDbEntity
  8
1
100
AcDbLine
 10
19933.30873463531
 20
21085.43881712126
 30
0.0
 11
19933.3087346353
 21
12068.77215045459
 31
0.0
  0
LINE
  5
719
330
1F
100
AcDbEntity
  8
0
100
AcDbLine
 10
19433.3087346353
 20
12068.77215045459
 30
0.0
 11
19933.3087346353
 21
12068.77215045459
 31
0.0
  0
LINE
  5
71A
330
1F
100
AcDbEntity
  8
0
100
AcDbLine
 10
19433.30873463531
 20
21085.43881712126
 30
0.0
 11
19933.30873463531
 21
21085.43881712126
 31
0.0
  0
LINE
  5
720
330
1F
100
AcDbEntity
  8
1
100
AcDbLine
 10
31433.30873463527
 20
21085.43881712126
 30
0.0
 11
31433.30873463526
 21
13418.7721504546
 31
0.0
  0
LINE
  5
721
330
1F
100
AcDbEntity
  8
1
100
AcDbLine
 10
31933.30873463527
 20
21085.43881712126
 30
0.0
 11
31933.30873463527
 21
13418.77215045459
 31
0.0
  0
LINE
  5
722
330
1F
100
AcDbEntity
  8
0
100
AcDbLine
 10
31433.30873463526
 20
13418.7721504546
 30
0.0
 11
31933.30873463527
 21
13418.77215045459
 31
0.0
  0
LINE
  5
723
330
1F
100
AcDbEntity
  8
0
100
AcDbLine
 10
31433.30873463527
 20
21085.43881712126
 30
0.0
 11
31933.30873463527
 21
21085.43881712126
 31
0.0
  0
LINE
  5
726
330
1F
100
AcDbEntity
  8
1
100
AcDbLine
 10
30516.60873463526
 20
21085.43881712126
 30
0.0
 11
30516.60873463526
 21
10902.10548378792
 31
0.0
  0
LINE
  5
727
330
1F
100
AcDbEntity
  8
1
100
AcDbLine
 10
30850.00873463527
 20
21085.43881712126
 30
0.0
 11
30850.00873463527
 21
10902.10548378792
 31
0.0
  0
LINE
  5
729
330
1F
100
AcDbEntity
  8
0
100
AcDbLine
 10
30516.60873463526
 20
10902.10548378792
 30
0.0
 11
30850.00873463527
 21
10902.10548378792
 31
0.0
  0
LINE
  5
72A
330
1F
100
AcDbEntity
  8
0
100
AcDbLine
 10
30516.60873463526
 20
21085.43881712126
 30
0.0
 11
30850.00873463527
 21
21085.43881712126
 31
0.0
  0
LINE
  5
730
330
1F
100
AcDbEntity
  8
0
100
AcDbLine
 10
30731.97245541628
 20
7516.922076031523
 30
0.0
 11
29231.97245541628
 21
10114.99828738483
 31
0.0
  0
LINE
  5
731
330
1F
100
AcDbEntity
  8
0
100
AcDbLine
 10
30731.97245541628
 20
7516.922076031523
 30
0.0
 11
27731.97245541628
 21
7516.922076031523
 31
0.0
  0
LINE
  5
732
330
1F
100
AcDbEntity
  8
0
100
AcDbLine
 10
27731.97245541628
 20
7516.922076031523
 30
0.0
 11
29231.97245541628
 21
10114.99828738483
 31
0.0
  0
LINE
  5
735
330
1F
100
AcDbEntity
  8
0
100
AcDbLine
 10
27731.97245541628
 20
9465.479234546508
 30
0.0
 11
29231.97245541628
 21
6867.403023193194
 31
0.0
  0
LINE
  5
736
330
1F
100
AcDbEntity
  8
0
100
AcDbLine
 10
27731.97245541628
 20
9465.479234546508
 30
0.0
 11
30731.97245541628
 21
9465.479234546508
 31
0.0
  0
LINE
  5
737
330
1F
100
AcDbEntity
  8
0
100
AcDbLine
 10
30731.97245541628
 20
9465.479234546508
 30
0.0
 11
29231.97245541628
 21
6867.403023193194
 31
0.0
  0
TEXT
  5
73B
330
1F
100
AcDbEntity
  8
0
100
AcDbText
 10
27375.98522036158
 20
10232.27806776508
 30
0.0
 40
500.0
  1
グループ図形
  7
KANJI
100
AcDbText
  0
TEXT
  5
73C
330
1F
100
AcDbEntity
  8
0
100
AcDbText
 10
23443.86458478673
 20
10232.27806776508
 30
0.0
 40
500.0
  1
ブロック図形
  7
KANJI
100
AcDbText
  0
INSERT
  5
74D
330
1F
100
AcDbEntity
  8
0
100
AcDbBlockReference
  2
NONAME
 10
12199.75897743096
 20
4508.97892854021
 30
0.0
 41
0.6
 42
0.6
 43
0.6
  0
LINE
  5
74E
330
1F
100
AcDbEntity
  8
0
100
AcDbLine
 10
40162.95930789137
 20
8789.515827027434
 30
0.0
 11
40162.95930789137
 21
6789.515827027426
 31
0.0
  0
LINE
  5
74F
330
1F
100
AcDbEntity
  8
0
100
AcDbLine
 10
38110.78354696862
 20
8789.515827027434
 30
0.0
 11
38110.78354696862
 21
6789.515827027428
 31
0.0
  0
LINE
  5
750
330
1F
100
AcDbEntity
  8
0
100
AcDbLine
 10
36162.95930789138
 20
6789.515827027429
 30
0.0
 11
36162.95930789138
 21
8789.515827027434
 31
0.0
  0
LINE
  5
752
330
1F
100
AcDbEntity
  8
0
100
AcDbLine
 10
34144.21740571502
 20
8789.515827027434
 30
0.0
 11
34144.21740571502
 21
6789.515827027432
 31
0.0
  0
LINE
  5
753
330
1F
100
AcDbEntity
  8
0
100
AcDbLine
 10
32162.95930789137
 20
8789.515827027434
 30
0.0
 11
32162.95930789137
 21
6789.515827027435
 31
0.0
  0
DIMENSION
  5
755
330
1F
100
AcDbEntity
  8
0
100
AcDbDimension
  2
*D10
 10
3334.831670027648
 20
4323.35489965057
 30
0.0
 11
2084.831670027648
 21
4535.85489965057
 31
0.0
 70
    32
  3
ISO-25
100
AcDbAlignedDimension
 13
834.8316700276482
 23
3391.885493772555
 33
0.0
 14
3334.831670027648
 24
3391.885493772555
 34
0.0
100
AcDbRotatedDimension
1001
ACAD
1000
DSTYLE
1002
{
1070
     6
1000

1070
   173
1070
     1
1070
     7
1000

1070
    40
1040
100.0
1002
}
  0
DIMENSION
  5
801
330
1F
100
AcDbEntity
  8
0
100
AcDbDimension
  2
*D12
 10
5834.831670027648
 20
4323.35489965057
 30
0.0
 11
4584.831670027648
 21
4535.85489965057
 31
0.0
 70
    32
  3
ISO-25
100
AcDbAlignedDimension
 13
3334.831670027648
 23
3391.885493772555
 33
0.0
 14
5834.831670027648
 24
3391.885493772555
 34
0.0
100
AcDbRotatedDimension
1001
ACAD
1000
DSTYLE
1002
{
1070
     6
1000
CLOSEDBLANK
1070
   173
1070
     1
1070
     7
1000
CLOSEDBLANK
1070
    40
1040
100.0
1002
}
  0
TEXT
  5
83A
330
1F
100
AcDbEntity
  8
0
100
AcDbText
 10
684.8316700276475
 20
5515.901028694454
 30
0.0
 40
500.0
  1
塗りつぶし
  7
KANJI
 72
     1
 11
2084.831670027647
 21
5515.901028694454
 31
0.0
100
AcDbText
  0
TEXT
  5
83B
330
1F
100
AcDbEntity
  8
0
100
AcDbText
 10
1568.165003360981
 20
4919.627964172512
 30
0.0
 40
500.0
  1
矢印
  7
KANJI
 72
     1
 11
2084.831670027648
 21
4919.627964172512
 31
0.0
100
AcDbText
  0
TEXT
  5
83C
330
1F
100
AcDbEntity
  8
0
100
AcDbText
 10
3768.165003360982
 20
4919.627964172512
 30
0.0
 40
500.0
  1
空矢印
  7
KANJI
 72
     1
 11
4584.831670027648
 21
4919.627964172512
 31
0.0
100
AcDbText
  0
DIMENSION
  5
83D
330
1F
100
AcDbEntity
  8
0
100
AcDbDimension
  2
*D14
 10
8334.831670027648
 20
4323.35489965057
 30
0.0
 11
7084.831670027648
 21
4535.85489965057
 31
0.0
 70
    32
  3
ISO-25
100
AcDbAlignedDimension
 13
5834.831670027648
 23
3391.885493772555
 33
0.0
 14
8334.831670027648
 24
3391.885493772555
 34
0.0
100
AcDbRotatedDimension
1001
ACAD
1000
DSTYLE
1002
{
1070
     6
1000
CLOSED
1070
   173
1070
     1
1070
     7
1000
CLOSED
1070
    40
1040
100.0
1002
}
  0
TEXT
  5
865
330
1F
100
AcDbEntity
  8
0
100
AcDbText
 10
6251.498336694315
 20
4919.627964172512
 30
0.0
 40
500.0
  1
閉矢印
  7
KANJI
 72
     1
 11
7084.831670027648
 21
4919.627964172512
 31
0.0
100
AcDbText
  0
DIMENSION
  5
866
330
1F
100
AcDbEntity
  8
0
100
AcDbDimension
  2
*D15
 10
10834.83167002764
 20
4323.35489965057
 30
0.0
 11
9584.831670027648
 21
4535.85489965057
 31
0.0
 70
    32
  3
ISO-25
100
AcDbAlignedDimension
 13
8334.831670027648
 23
3391.885493772555
 33
0.0
 14
10834.83167002764
 24
3391.885493772555
 34
0.0
100
AcDbRotatedDimension
1001
ACAD
1000
DSTYLE
1002
{
1070
     6
1000
DOT
1070
   173
1070
     1
1070
     7
1000
DOT
1070
    40
1040
100.0
1002
}
  0
TEXT
  5
893
330
1F
100
AcDbEntity
  8
0
100
AcDbText
 10
9051.498336694313
 20
4919.627964172512
 30
0.0
 40
500.0
  1
黒丸
  7
KANJI
 72
     1
 11
9584.831670027648
 21
4919.627964172512
 31
0.0
100
AcDbText
  0
TEXT
  5
89C
330
1F
100
AcDbEntity
  8
0
100
AcDbText
 10
11534.83167002764
 20
4919.627964172512
 30
0.0
 40
500.0
  1
(太)
  7
KANJI
 72
     1
 11
12084.83167002764
 21
4919.627964172512
 31
0.0
100
AcDbText
  0
DIMENSION
  5
89D
330
1F
100
AcDbEntity
  8
0
100
AcDbDimension
  2
*D17
 10
13334.83167002764
 20
4323.35489965057
 30
0.0
 11
12084.83167002764
 21
4535.85489965057
 31
0.0
 70
    32
  3
ISO-25
100
AcDbAlignedDimension
 13
10834.83167002764
 23
3391.885493772555
 33
0.0
 14
13334.83167002764
 24
3391.885493772555
 34
0.0
100
AcDbRotatedDimension
1001
ACAD
1000
DSTYLE
1002
{
1070
     6
1000
ARCHTICK
1070
   173
1070
     1
1070
     7
1000
ARCHTICK
1070
    40
1040
100.0
1002
}
  0
TEXT
  5
8C9
330
1F
100
AcDbEntity
  8
0
100
AcDbText
 10
13468.16500336098
 20
4919.627964172512
 30
0.0
 40
500.0
  1
ティック
  7
KANJI
 72
     1
 11
14584.83167002764
 21
4919.627964172512
 31
0.0
100
AcDbText
  0
DIMENSION
  5
8CA
330
1F
100
AcDbEntity
  8
0
100
AcDbDimension
  2
*D19
 10
15834.83167002764
 20
4323.35489965057
 30
0.0
 11
14584.83167002764
 21
4535.85489965057
 31
0.0
 70
    32
  3
ISO-25
100
AcDbAlignedDimension
 13
13334.83167002764
 23
3391.885493772555
 33
0.0
 14
15834.83167002764
 24
3391.885493772555
 34
0.0
100
AcDbRotatedDimension
1001
ACAD
1000
DSTYLE
1002
{
1070
     6
1000
OBLIQUE
1070
   173
1070
     1
1070
     7
1000
OBLIQUE
1070
    40
1040
100.0
1002
}
  0
TEXT
  5
8F6
330
1F
100
AcDbEntity
  8
0
100
AcDbText
 10
10968.16500336098
 20
5452.894222873409
 30
0.0
 40
500.0
  1
ティック
  7
KANJI
 72
     1
 11
12084.83167002764
 21
5452.894222873409
 31
0.0
100
AcDbText
  0
DIMENSION
  5
8F7
330
1F
100
AcDbEntity
  8
0
100
AcDbDimension
  2
*D21
 10
18334.83167002764
 20
4323.35489965057
 30
0.0
 11
17084.83167002764
 21
4535.85489965057
 31
0.0
 70
    32
  3
ISO-25
100
AcDbAlignedDimension
 13
15834.83167002764
 23
3391.885493772555
 33
0.0
 14
18334.83167002764
 24
3391.885493772555
 34
0.0
100
AcDbRotatedDimension
1001
ACAD
1000
DSTYLE
1002
{
1070
     6
1000
OPEN
1070
   173
1070
     1
1070
     7
1000
OPEN
1070
    40
1040
100.0
1002
}
  0
TEXT
  5
8F8
330
1F
100
AcDbEntity
  8
0
100
AcDbText
 10
16251.49833669431
 20
4919.627964172512
 30
0.0
 40
500.0
  1
開矢印
  7
KANJI
 72
     1
 11
17084.83167002764
 21
4919.627964172512
 31
0.0
100
AcDbText
  0
DIMENSION
  5
92F
330
1F
100
AcDbEntity
  8
0
100
AcDbDimension
  2
*D23
 10
20834.83167002764
 20
4323.35489965057
 30
0.0
 11
19584.83167002764
 21
4535.85489965057
 31
0.0
 70
    32
  3
ISO-25
100
AcDbAlignedDimension
 13
18334.83167002764
 23
3391.885493772555
 33
0.0
 14
20834.83167002764
 24
3391.885493772555
 34
0.0
100
AcDbRotatedDimension
1001
ACAD
1000
DSTYLE
1002
{
1070
     6
1000
ORIGIN
1070
   173
1070
     1
1070
     7
1000
ORIGIN
1070
    40
1040
100.0
1002
}
  0
TEXT
  5
930
330
1F
100
AcDbEntity
  8
0
100
AcDbText
 10
18868.16500336098
 20
4919.627964172512
 30
0.0
 40
500.0
  1
白丸1
  7
KANJI
 72
     1
 11
19584.83167002764
 21
4919.627964172512
 31
0.0
100
AcDbText
  0
DIMENSION
  5
97D
330
1F
100
AcDbEntity
  8
0
100
AcDbDimension
  2
*D25
 10
23334.83167002765
 20
4323.35489965057
 30
0.0
 11
22084.83167002765
 21
4535.85489965057
 31
0.0
 70
    32
  3
ISO-25
100
AcDbAlignedDimension
 13
20834.83167002764
 23
3391.885493772555
 33
0.0
 14
23334.83167002765
 24
3391.885493772555
 34
0.0
100
AcDbRotatedDimension
1001
ACAD
1000
DSTYLE
1002
{
1070
     6
1000
ORIGIN2
1070
   173
1070
     1
1070
     7
1000
ORIGIN2
1070
    40
1040
100.0
1002
}
  0
TEXT
  5
97E
330
1F
100
AcDbEntity
  8
0
100
AcDbText
 10
21284.83167002765
 20
4919.627964172512
 30
0.0
 40
500.0
  1
白丸2
  7
KANJI
 72
     1
 11
22084.83167002765
 21
4919.627964172512
 31
0.0
100
AcDbText
  0
DIMENSION
  5
9C3
330
1F
100
AcDbEntity
  8
0
100
AcDbDimension
  2
*D27
 10
25834.83167002765
 20
4323.35489965057
 30
0.0
 11
24584.83167002765
 21
4535.85489965057
 31
0.0
 70
    32
  3
ISO-25
100
AcDbAlignedDimension
 13
23334.83167002765
 23
3391.885493772555
 33
0.0
 14
25834.83167002765
 24
3391.885493772555
 34
0.0
100
AcDbRotatedDimension
1001
ACAD
1000
DSTYLE
1002
{
1070
     6
1000
OPEN90
1070
   173
1070
     1
1070
     7
1000
OPEN90
1070
    40
1040
100.0
1002
}
  0
TEXT
  5
9C4
330
1F
100
AcDbEntity
  8
0
100
AcDbText
 10
23468.16500336098
 20
4919.627964172512
 30
0.0
 40
500.0
  1
直角矢印
  7
KANJI
 72
     1
 11
24584.83167002765
 21
4919.627964172512
 31
0.0
100
AcDbText
  0
DIMENSION
  5
AAF
330
1F
100
AcDbEntity
  8
0
100
AcDbDimension
  2
*D29
 10
28334.83167002765
 20
4323.35489965057
 30
0.0
 11
27084.83167002765
 21
4535.85489965057
 31
0.0
 70
    32
  1
<>
  3
ISO-25
100
AcDbAlignedDimension
 13
25834.83167002765
 23
3391.885493772555
 33
0.0
 14
28334.83167002765
 24
3391.885493772555
 34
0.0
100
AcDbRotatedDimension
1001
ACAD
1000
DSTYLE
1002
{
1070
     6
1000
OPEN30
1070
   173
1070
     1
1070
     7
1000
OPEN30
1070
    40
1040
100.0
1002
}
  0
TEXT
  5
AB0
330
1F
100
AcDbEntity
  8
0
100
AcDbText
 10
25809.83167002764
 20
4919.627964172512
 30
0.0
 40
500.0
  1
30°矢印
  7
KANJI
 72
     1
 11
27084.83167002765
 21
4919.627964172512
 31
0.0
100
AcDbText
  0
TEXT
  5
AE7
330
1F
100
AcDbEntity
  8
0
100
AcDbText
 10
28751.49833669431
 20
4919.627964172512
 30
0.0
 40
500.0
  1
小黒丸
  7
KANJI
 72
     1
 11
29584.83167002765
 21
4919.627964172512
 31
0.0
100
AcDbText
  0
DIMENSION
  5
AE8
330
1F
100
AcDbEntity
  8
0
100
AcDbDimension
  2
*D31
 10
30834.83167002765
 20
4323.35489965057
 30
0.0
 11
29584.83167002765
 21
4535.85489965057
 31
0.0
 70
    32
  1
<>
  3
ISO-25
100
AcDbAlignedDimension
 13
28334.83167002765
 23
3391.885493772555
 33
0.0
 14
30834.83167002765
 24
3391.885493772555
 34
0.0
100
AcDbRotatedDimension
1001
ACAD
1000
DSTYLE
1002
{
1070
     6
1000
DOTSMALL
1070
   173
1070
     1
1070
     7
1000
DOTSMALL
1070
    40
1040
100.0
1002
}
  0
DIMENSION
  5
B1D
330
1F
100
AcDbEntity
  8
0
100
AcDbDimension
  2
*D33
 10
33334.83167002765
 20
4323.35489965057
 30
0.0
 11
32084.83167002765
 21
4535.85489965057
 31
0.0
 70
    32
  1
<>
  3
ISO-25
100
AcDbAlignedDimension
 13
30834.83167002765
 23
3391.885493772555
 33
0.0
 14
33334.83167002765
 24
3391.885493772555
 34
0.0
100
AcDbRotatedDimension
1001
ACAD
1000
DSTYLE
1002
{
1070
     6
1000
DOTBLANK
1070
   173
1070
     1
1070
     7
1000
DOTBLANK
1070
    40
1040
100.0
1002
}
  0
TEXT
  5
B1E
330
1F
100
AcDbEntity
  8
0
100
AcDbText
 10
31251.49833669431
 20
4919.627964172512
 30
0.0
 40
500.0
  1
空白丸
  7
KANJI
 72
     1
 11
32084.83167002765
 21
4919.627964172512
 31
0.0
100
AcDbText
  0
DIMENSION
  5
B55
330
1F
100
AcDbEntity
  8
0
100
AcDbDimension
  2
*D35
 10
35834.83167002765
 20
4323.35489965057
 30
0.0
 11
34584.83167002765
 21
4535.85489965057
 31
0.0
 70
    32
  1
<>
  3
ISO-25
100
AcDbAlignedDimension
 13
33334.83167002765
 23
3391.885493772555
 33
0.0
 14
35834.83167002765
 24
3391.885493772555
 34
0.0
100
AcDbRotatedDimension
1001
ACAD
1000
DSTYLE
1002
{
1070
     6
1000
SMALL
1070
   173
1070
     1
1070
     7
1000
SMALL
1070
    40
1040
100.0
1002
}
  0
TEXT
  5
B56
330
1F
100
AcDbEntity
  8
0
100
AcDbText
 10
33451.49833669431
 20
4919.627964172512
 30
0.0
 40
500.0
  1
小空白丸
  7
KANJI
 72
     1
 11
34584.83167002765
 21
4919.627964172512
 31
0.0
100
AcDbText
  0
TEXT
  5
B82
330
1F
100
AcDbEntity
  8
0
100
AcDbText
 10
36551.49833669431
 20
4919.627964172512
 30
0.0
 40
500.0
  1
四角
  7
KANJI
 72
     1
 11
37084.83167002765
 21
4919.627964172512
 31
0.0
100
AcDbText
  0
DIMENSION
  5
B83
330
1F
100
AcDbEntity
  8
0
100
AcDbDimension
  2
*D37
 10
38334.83167002765
 20
4323.35489965057
 30
0.0
 11
37084.83167002765
 21
4535.85489965057
 31
0.0
 70
    32
  1
<>
  3
ISO-25
100
AcDbAlignedDimension
 13
35834.83167002765
 23
3391.885493772555
 33
0.0
 14
38334.83167002765
 24
3391.885493772555
 34
0.0
100
AcDbRotatedDimension
1001
ACAD
1000
DSTYLE
1002
{
1070
     6
1000
BOXBLANK
1070
   173
1070
     1
1070
     7
1000
BOXBLANK
1070
    40
1040
100.0
1002
}
  0
TEXT
  5
E64
330
1F
100
AcDbEntity
  8
0
100
AcDbText
 10
39051.49833669431
 20
4919.627964172512
 30
0.0
 40
500.0
  1
四角
  7
KANJI
 72
     1
 11
39584.83167002765
 21
4919.627964172512
 31
0.0
100
AcDbText
  0
DIMENSION
  5
E65
330
1F
100
AcDbEntity
  8
0
100
AcDbDimension
  2
*D39
 10
40834.83167002764
 20
4323.35489965057
 30
0.0
 11
39584.83167002765
 21
4535.85489965057
 31
0.0
 70
    32
  1
<>
  3
ISO-25
100
AcDbAlignedDimension
 13
38334.83167002765
 23
3391.885493772555
 33
0.0
 14
40834.83167002764
 24
3391.885493772555
 34
0.0
100
AcDbRotatedDimension
1001
ACAD
1000
DSTYLE
1002
{
1070
     6
1000
BOXFILLED
1070
   173
1070
     1
1070
     7
1000
BOXFILLED
1070
    40
1040
100.0
1002
}
  0
TEXT
  5
E92
330
1F
100
AcDbEntity
  8
0
100
AcDbText
 10
38184.83167002765
 20
5419.627964172512
 30
0.0
 40
500.0
  1
塗りつぶし
  7
KANJI
 72
     1
 11
39584.83167002765
 21
5419.627964172512
 31
0.0
100
AcDbText
  0
DIMENSION
  5
E93
330
1F
100
AcDbEntity
  8
0
100
AcDbDimension
  2
*D41
 10
6374.072001619017
 20
1663.887067986979
 30
0.0
 11
5124.072001619017
 21
1876.387067986979
 31
0.0
 70
    32
  1
<>
  3
ISO-25
100
AcDbAlignedDimension
 13
3874.072001619017
 23
732.4176621089645
 33
0.0
 14
6374.072001619017
 24
732.4176621089645
 34
0.0
100
AcDbRotatedDimension
1001
ACAD
1000
DSTYLE
1002
{
1070
     6
1000
DATUMBLANK
1070
   173
1070
     1
1070
     7
1000
DATUMBLANK
1070
    40
1040
100.0
1002
}
  0
TEXT
  5
E94
330
1F
100
AcDbEntity
  8
0
100
AcDbText
 10
4007.405334952351
 20
2161.68455103159
 30
0.0
 40
500.0
  1
データム
  7
KANJI
 72
     1
 11
5124.072001619017
 21
2161.68455103159
 31
0.0
100
AcDbText
  0
TEXT
  5
ED4
330
1F
100
AcDbEntity
  8
0
100
AcDbText
 10
4624.072001619017
 20
2702.193038433077
 30
0.0
 40
500.0
  1
空白
  7
KANJI
 72
     1
 11
5124.072001619017
 21
2702.193038433077
 31
0.0
100
AcDbText
  0
TEXT
  5
F80
330
1F
100
AcDbEntity
  8
0
100
AcDbText
 10
6507.405334952351
 20
2161.68455103159
 30
0.0
 40
500.0
  1
データム
  7
KANJI
 72
     1
 11
7624.072001619016
 21
2161.68455103159
 31
0.0
100
AcDbText
  0
DIMENSION
  5
F81
330
1F
100
AcDbEntity
  8
0
100
AcDbDimension
  2
*D43
 10
8874.072001619017
 20
1663.887067986979
 30
0.0
 11
7624.072001619016
 21
1876.387067986979
 31
0.0
 70
    32
  1
<>
  3
ISO-25
100
AcDbAlignedDimension
 13
6374.072001619017
 23
732.4176621089645
 33
0.0
 14
8874.072001619017
 24
732.4176621089645
 34
0.0
100
AcDbRotatedDimension
1001
ACAD
1000
DSTYLE
1002
{
1070
     6
1000
DATUMFILLED
1070
   173
1070
     1
1070
     7
1000
DATUMFILLED
1070
    40
1040
100.0
1002
}
  0
TEXT
  5
FAD
330
1F
100
AcDbEntity
  8
0
100
AcDbText
 10
6224.072001619017
 20
2702.193038433077
 30
0.0
 40
500.0
  1
塗りつぶし
  7
KANJI
 72
     1
 11
7624.072001619016
 21
2702.193038433077
 31
0.0
100
AcDbText
  0
DIMENSION
  5
114E
330
1F
100
AcDbEntity
  8
0
100
AcDbDimension
  2
*D45
 10
11374.07200161901
 20
1663.887067986979
 30
0.0
 11
10124.07200161901
 21
1876.387067986979
 31
0.0
 70
    32
  1
<>
  3
ISO-25
100
AcDbAlignedDimension
 13
8874.072001619017
 23
732.4176621089645
 33
0.0
 14
11374.07200161901
 24
732.4176621089645
 34
0.0
100
AcDbRotatedDimension
1001
ACAD
1000
DSTYLE
1002
{
1070
     6
1000
INTEGRAL
1070
   173
1070
     1
1070
     7
1000
INTEGRAL
1070
    40
1040
100.0
1002
}
  0
TEXT
  5
114F
330
1F
100
AcDbEntity
  8
0
100
AcDbText
 10
9590.738668285684
 20
2161.68455103159
 30
0.0
 40
500.0
  1
波形
  7
KANJI
 72
     1
 11
10124.07200161901
 21
2161.68455103159
 31
0.0
100
AcDbText
  0
DIMENSION
  5
117C
330
1F
100
AcDbEntity
  8
0
100
AcDbDimension
  2
*D47
 10
13874.07200161901
 20
1663.887067986979
 30
0.0
 11
12624.07200161901
 21
1876.387067986979
 31
0.0
 70
    32
  1
<>
  3
ISO-25
100
AcDbAlignedDimension
 13
11374.07200161901
 23
732.4176621089645
 33
0.0
 14
13874.07200161901
 24
732.4176621089645
 34
0.0
100
AcDbRotatedDimension
1001
ACAD
1000
DSTYLE
1002
{
1070
     6
1000
NONE
1070
   173
1070
     1
1070
     7
1000
NONE
1070
    40
1040
100.0
1002
}
  0
TEXT
  5
117D
330
1F
100
AcDbEntity
  8
0
100
AcDbText
 10
12124.07200161901
 20
2161.68455103159
 30
0.0
 40
500.0
  1
なし
  7
KANJI
 72
     1
 11
12624.07200161901
 21
2161.68455103159
 31
0.0
100
AcDbText
  0
DIMENSION
  5
13F4
330
1F
100
AcDbEntity
  8
0
100
AcDbDimension
  2
*D49
 10
16108.82612140059
 20
1663.887067986979
 30
0.0
 11
16871.32612140059
 21
1663.887067986979
 31
0.0
 70
   160
  1
<>
  3
ISO-25
100
AcDbAlignedDimension
 13
14608.82612140059
 23
732.4176621089645
 33
0.0
 14
16108.82612140059
 24
732.4176621089645
 34
0.0
100
AcDbRotatedDimension
1001
ACAD
1000
DSTYLE
1002
{
1070
    40
1040
100.0
1070
   173
1070
     1
1070
     6
1000
OPEN30
1070
     7
1000
OPEN30
1002
}
  0
DIMENSION
  5
147B
330
1F
100
AcDbEntity
  8
0
100
AcDbDimension
  2
*D50
 10
19554.68096413649
 20
1663.887067986979
 30
0.0
 11
20467.18096413649
 21
1663.887067986979
 31
0.0
 70
   160
  1
<>
  3
ISO-25
100
AcDbAlignedDimension
 13
19054.68096413649
 23
732.4176621089645
 33
0.0
 14
19554.68096413649
 24
732.4176621089645
 34
0.0
100
AcDbRotatedDimension
1001
ACAD
1000
DSTYLE
1002
{
1070
   279
1070
     0
1070
    40
1040
100.0
1070
   173
1070
     1
1070
     6
1000
OPEN30
1070
     7
1000
OPEN30
1002
}
  0
TEXT
  5
151F
330
1F
100
AcDbEntity
  8
0
100
AcDbText
 10
14219.42234363432
 20
2161.68455103159
 30
0.0
 40
500.0
  1
外向きの矢印
  7
KANJI
 72
     1
 11
15936.08901030098
 21
2161.68455103159
 31
0.0
100
AcDbText
  0
TEXT
  5
152B
330
1F
100
AcDbEntity
  8
0
100
AcDbText
 10
18038.39553279113
 20
2161.68455103159
 30
0.0
 40
500.0
  1
内向きの矢印
  7
KANJI
 72
     1
 11
19771.72886612446
 21
2161.68455103159
 31
0.0
100
AcDbText
  0
TEXT
  5
156C
330
1F
100
AcDbEntity
  8
0
100
AcDbText
 10
22164.30081507835
 20
2161.68455103159
 30
0.0
 40
500.0
  1
座標寸法
  7
KANJI
 72
     1
 11
23297.63414841168
 21
2161.68455103159
 31
0.0
100
AcDbText
  0
DIMENSION
  5
1682
330
1F
100
AcDbEntity
  8
0
100
AcDbDimension
  2
*D53
 10
38079.23269341683
 20
22516.99684345932
 30
0.0
 11
36161.20554944833
 21
20899.49008149508
 31
0.0
 70
    33
  3
ISO-25
100
AcDbAlignedDimension
 13
33902.64286594653
 23
19622.51885906414
 33
0.0
 14
37438.17677187927
 24
23158.05276499688
 34
0.0
1001
ACAD
1000
DSTYLE
1002
{
1070
    40
1040
100.0
1002
}
  0
DIMENSION
  5
168F
330
1F
100
AcDbEntity
  8
0
100
AcDbDimension
  2
*D54
 10
38005.66793242672
 20
23725.54392554433
 30
0.0
 11
37625.59803753895
 21
24406.13420243639
 31
0.0
 70
    33
  3
ISO-25
100
AcDbAlignedDimension
 13
36377.51660009945
 23
24218.7129367767
 33
0.0
 14
37438.17677187927
 24
23158.05276499688
 34
0.0
1001
ACAD
1000
DSTYLE
1002
{
1070
    40
1040
100.0
1002
}
  0
DIMENSION
  5
16AE
330
1F
100
AcDbEntity
  8
0
100
AcDbDimension
  2
*D55
 10
39061.61755388569
 20
26056.56410520013
 30
0.0
 11
36561.61755388569
 21
26269.06410520013
 31
0.0
 70
    33
  3
ISO-25
100
AcDbAlignedDimension
 13
34061.61755388569
 23
26963.15408367813
 33
0.0
 14
39061.61755388569
 24
26963.15408367813
 34
0.0
1001
ACAD
1000
DSTYLE
1002
{
1070
    40
1040
100.0
1002
}
  0
DIMENSION
  5
16AF
330
1F
100
AcDbEntity
  8
0
100
AcDbDimension
  2
*D56
 10
39864.17124965874
 20
26963.15408367813
 30
0.0
 11
39651.67124965873
 21
27713.15408367814
 31
0.0
 70
    33
  3
ISO-25
100
AcDbAlignedDimension
 13
39061.61755388569
 23
28463.15408367813
 33
0.0
 14
39061.61755388569
 24
26963.15408367813
 34
0.0
1001
ACAD
1000
DSTYLE
1002
{
1070
    40
1040
100.0
1002
}
  0
TEXT
  5
1710
330
1F
100
AcDbEntity
  8
1
 62
     0
100
AcDbText
 10
33826.09168609505
 20
19964.80324982827
 30
0.0
 40
500.0
  1
平行寸法
 50
45.0
  7
KANJI
100
AcDbText
  0
TEXT
  5
1711
330
1F
100
AcDbEntity
  8
1
 62
     0
100
AcDbText
 10
33472.53829550178
 20
20318.35664042155
 30
0.0
 40
500.0
  1
四角形と長さ寸法
 50
45.0
  7
KANJI
100
AcDbText
  0
TEXT
  5
1712
330
1F
100
AcDbEntity
  8
1
 62
     0
100
AcDbText
 10
33826.09168609505
 20
19964.80324982827
 30
0.0
 40
500.0
  1
平行寸法
 50
45.0
  7
KANJI
100
AcDbText
  0
TEXT
  5
1840
330
1F
100
AcDbEntity
  8
1
 62
     0
100
AcDbText
 10
34249.51930930849
 20
27759.31555586257
 30
0.0
 40
500.0
  1
四角形と長さ寸法
  7
KANJI
100
AcDbText
  0
TEXT
  5
1841
330
1F
100
AcDbEntity
  8
1
 62
     0
100
AcDbText
 10
34249.51930930849
 20
27759.31555586257
 30
0.0
 40
500.0
  1
四角形と長さ寸法
  7
KANJI
100
AcDbText
  0
TEXT
  5
1842
330
1F
100
AcDbEntity
  8
1
 62
     0
100
AcDbText
 10
34249.51930930849
 20
27259.31555586257
 30
0.0
 40
500.0
  1
平行寸法
  7
KANJI
100
AcDbText
  0
TEXT
  5
1843
330
1F
100
AcDbEntity
  8
1
 62
     0
100
AcDbText
 10
34249.51930930849
 20
27259.31555586257
 30
0.0
 40
500.0
  1
平行寸法
  7
KANJI
100
AcDbText
  0
TEXT
  5
18CB
330
1F
100
AcDbEntity
  8
フリーズ画層
100
AcDbText
 10
29297.88047843924
 20
2369.538337786623
 30
0.0
 40
500.0
  1
フリーズされた画層に書かれた文字
  7
KANJI
100
AcDbText
  0
TEXT
  5
18CC
330
1F
100
AcDbEntity
  8
非表示画層
100
AcDbText
 10
29297.88047843924
 20
1869.538337786623
 30
0.0
 40
500.0
  1
非表示画層に書かれた文字
  7
KANJI
100
AcDbText
  0
TEXT
  5
18CD
330
1F
100
AcDbEntity
  8
非表示かつフリーズ画層
100
AcDbText
 10
29297.88047843924
 20
1369.538337786623
 30
0.0
 40
500.0
  1
非表示かつフリーズされた画層に書かれた文字
  7
KANJI
100
AcDbText
  0
TEXT
  5
18CF
330
1F
100
AcDbEntity
  8
ロックされた画層
100
AcDbText
 10
29297.88047843924
 20
869.5383377866237
 30
0.0
 40
500.0
  1
ロックされた画層に書かれた文字
  7
KANJI
100
AcDbText
  0
TEXT
  5
1ABE
330
1F
100
AcDbEntity
  8
フリーズ画層
100
AcDbText
 10
18013.26504642274
 20
8351.553922912222
 30
0.0
 40
500.0
  1
雲マーク
  7
KANJI
100
AcDbText
  0
TEXT
  5
1ABF
330
1F
100
AcDbEntity
  8
1
100
AcDbText
 10
15934.06065949847
 20
10232.27806776508
 30
0.0
 40
500.0
  1
(ポリライン)
  7
KANJI
 72
     1
 11
17684.06065949847
 21
10232.27806776508
 31
0.0
100
AcDbText
  0
POLYLINE
  5
1AC1
330
1F
100
AcDbEntity
  8
1
100
AcDb2dPolyline
 66
     1
 10
0.0
 20
0.0
 30
0.0
 70
     1
  0
VERTEX
  5
20F3
330
1AC1
100
AcDbEntity
  8
1
100
AcDbVertex
100
AcDb2dVertex
 10
17355.64886932063
 20
9506.927495816984
 30
0.0
 42
0.52056705
  0
VERTEX
  5
20F4
330
1AC1
100
AcDbEntity
  8
1
100
AcDbVertex
100
AcDb2dVertex
 10
16857.00923996034
 20
9506.927495816984
 30
0.0
 42
0.52056705
  0
VERTEX
  5
20F5
330
1AC1
100
AcDbEntity
  8
1
100
AcDbVertex
100
AcDb2dVertex
 10
16477.09299069931
 20
9328.998963914726
 30
0.0
 42
0.52056705
  0
VERTEX
  5
20F6
330
1AC1
100
AcDbEntity
  8
1
100
AcDbVertex
100
AcDb2dVertex
 10
16239.64555880858
 20
8996.86581798768
 30
0.0
 42
0.52056705
  0
VERTEX
  5
20F7
330
1AC1
100
AcDbEntity
  8
1
100
AcDbVertex
100
AcDb2dVertex
 10
16061.55981696746
 20
8617.285079785302
 30
0.0
 42
0.52056705
  0
VERTEX
  5
20F8
330
1AC1
100
AcDbEntity
  8
1
100
AcDbVertex
100
AcDb2dVertex
 10
16120.9217309145
 20
8202.118586506607
 30
0.0
 42
0.52056705
  0
VERTEX
  5
20F9
330
1AC1
100
AcDbEntity
  8
1
100
AcDbVertex
100
AcDb2dVertex
 10
16346.49700391324
 20
7869.985440579533
 30
0.0
 42
0.52056705
  0
VERTEX
  5
20FA
330
1AC1
100
AcDbEntity
  8
1
100
AcDbVertex
100
AcDb2dVertex
 10
16643.30634975101
 20
7514.128376775044
 30
0.0
 42
0.52056705
  0
VERTEX
  5
20FB
330
1AC1
100
AcDbEntity
  8
1
100
AcDbVertex
100
AcDb2dVertex
 10
17023.22237511465
 20
7348.061803811521
 30
0.0
 42
0.52056705
  0
VERTEX
  5
20FC
330
1AC1
100
AcDbEntity
  8
1
100
AcDbVertex
100
AcDb2dVertex
 10
17498.11746279351
 20
7265.02857819965
 30
0.0
 42
0.52056705
  0
VERTEX
  5
20FD
330
1AC1
100
AcDbEntity
  8
1
100
AcDbVertex
100
AcDb2dVertex
 10
17913.65063652536
 20
7312.476170474926
 30
0.0
 42
0.52056705
  0
VERTEX
  5
20FE
330
1AC1
100
AcDbEntity
  8
1
100
AcDbVertex
100
AcDb2dVertex
 10
18293.56666188899
 20
7478.542743438477
 30
0.0
 42
0.52056705
  0
VERTEX
  5
20FF
330
1AC1
100
AcDbEntity
  8
1
100
AcDbVertex
100
AcDb2dVertex
 10
18720.97221841025
 20
7644.609316401998
 30
0.0
 42
0.52056705
  0
VERTEX
  5
2100
330
1AC1
100
AcDbEntity
  8
1
100
AcDbVertex
100
AcDb2dVertex
 10
19041.52655372422
 20
7905.57107391613
 30
0.0
 42
0.52056705
  0
VERTEX
  5
2101
330
1AC1
100
AcDbEntity
  8
1
100
AcDbVertex
100
AcDb2dVertex
 10
19207.73968887853
 20
8273.289974919549
 30
0.0
 42
0.52056705
  0
VERTEX
  5
2102
330
1AC1
100
AcDbEntity
  8
1
100
AcDbVertex
100
AcDb2dVertex
 10
19326.4635167726
 20
8664.732672060607
 30
0.0
 42
0.52056705
  0
VERTEX
  5
2103
330
1AC1
100
AcDbEntity
  8
1
100
AcDbVertex
100
AcDb2dVertex
 10
19362.08066514082
 20
9079.899165339332
 30
0.0
 42
0.52056705
  0
VERTEX
  5
2104
330
1AC1
100
AcDbEntity
  8
1
100
AcDbVertex
100
AcDb2dVertex
 10
19112.76085046067
 20
9412.032311266376
 30
0.0
 42
0.52056705
  0
VERTEX
  5
2105
330
1AC1
100
AcDbEntity
  8
1
100
AcDbVertex
100
AcDb2dVertex
 10
18768.46174956788
 20
9625.546476505203
 30
0.0
 42
0.52056705
  0
VERTEX
  5
2106
330
1AC1
100
AcDbEntity
  8
1
100
AcDbVertex
100
AcDb2dVertex
 10
18341.05619304662
 20
9756.027416132157
 30
0.0
 42
0.52056705
  0
VERTEX
  5
2107
330
1AC1
100
AcDbEntity
  8
1
100
AcDbVertex
100
AcDb2dVertex
 10
17913.65063652536
 20
9815.336845606392
 30
0.0
 42
0.52056705
  0
SEQEND
  5
2108
330
1AC1
100
AcDbEntity
  8
1
  0
TEXT
  5
1AE3
330
1F
100
AcDbEntity
  8
0
100
AcDbText
 10
20103.52469524904
 20
10232.27806776508
 30
0.0
 40
500.0
  1
リージョン
  7
KANJI
100
AcDbText
  0
REGION
  5
1AE7
330
1F
100
AcDbEntity
  8
1
100
AcDbModelerGeometry
 70
     1
  1
noi io n o          
  1
=0;& {rn {n {rn {rn |
  1
3*2/ {rn {rn {m {o |
  1
,7:33 {rn {rn {rn {l {n |
  1
9><: {rn {rn {k {m {rn {j 90-(>-; ;0*=3: 0*+ |
  1
300/ {rn {rn {i {l |
  1
/3>1:r,*-9><: {rn mnkjfqjilkkillkig gjffqkjlglohimoifi o o o n n o o o V V V V |
  1
<0:;8: {rn {h {g {rn {f n {k {rn |
  1
<0:;8: {rn {no {i {rn {nn n {k {rn |
  1
<0:;8: {rn {i {nm {rn {nl o {k {rn |
  1
:;8: {rn {nk {nj {i {ni o |
  1
<0:;8: {rn {nh {h {rn {ng o {k {rn |
  1
:;8: {rn {nf {nk {h {mo o |
  1
<0:;8: {rn {g {mn {rn {mm n {k {rn |
  1
:;8: {rn {ml {nj {g {mk o |
  1
):-+:' {rn {nn {mj |
  1
):-+:' {rn {f {mi |
  1
,+->687+r<*-): {rn mmfjfqjilkkillkig fkijqkhfmlkjkijogj o roqjoooooooooooooomm roqgiiomjkolhgkklgi o V V |
  1
<0:;8: {rn {mh {no {rn {mg n {k {rn |
  1
:;8: {rn {nf {mf {no {mk o |
  1
):-+:' {rn {nn {lo |
  1
,+->687+r<*-): {rn nffjfqjilkkillkig fkijqkhfmlkjkijogj o n o o V V |
  1
<0:;8: {rn {nm {ln {rn {lm n {k {rn |
  1
:;8: {rn {ml {ll {nm {lk o |
  1
):-+:' {rn {mm {lj |
  1
,+->687+r<*-): {rn mmfjfqjilkkillkig hjniqfmmohiolnjmm o roqjoooooooooooooomm oqgiiomjkolhgkklgi o V V |
  1
/061+ {rn mmfjfqjilkkillkig fkijqkhfmlkjkijogj o |
  1
/061+ {rn mmlfhqoilkkillkig gkfnqmooijjmgfonin o |
  1
<0:;8: {rn {li {nh {rn {lh n {k {rn |
  1
:;8: {rn {lg {mf {nh {lf o |
  1
):-+:' {rn {mg {ko |
  1
/061+ {rn mnglkqjilkkillkig fkijqkhfmlkjkijogj o |
  1
<0:;8: {rn {mn {kn {rn {km o {k {rn |
  1
:;8: {rn {ll {kl {mn {ni o |
  1
):-+:' {rn {lm {kk |
  1
,+->687+r<*-): {rn mmfjfqjilkkillkig hjniqfmmohiolnjmm o rn o o V V |
  1
/061+ {rn mmfjfqjilkkillkig hjniqfmmohiolnjmm o |
  1
<0:;8: {rn {kj {mh {rn {ki o {k {rn |
  1
:;8: {rn {kh {lg {mh {mo o |
  1
):-+:' {rn {lh {kg |
  1
,+->687+r<*-): {rn nffjfqjilkkillkig hjniqfmmohiolnjmm o oqjoooooooooooooomm oqgiiomjkolhgkklgi o V V |
  1
/061+ {rn mnkjfqjilkkillkig nonnkqffgmghlgkglh o |
  1
<0:;8: {rn {ln {kj {rn {kf n {k {rn |
  1
:;8: {rn {jo {kl {ln {jn o |
  1
):-+:' {rn {lm {jm |
  1
/061+ {rn mnglkqjilkkillkig hjniqfmmohiolnjmm o |
  1
<0:;8: {rn {kn {li {rn {jl n {k {rn |
  1
:;8: {rn {kh {jk {li {jn o |
  1
):-+:' {rn {lh {jj |
  1
/061+ {rn mnogkqjilkkillkig fkijqkhfmlkjkijogj o |
  1
:;8: {rn {jo {ji {kn {lk o |
  1
):-+:' {rn {km {jh |
  1
,+->687+r<*-): {rn nffjfqjilkkillkig fkijqkhfmlkjkijogj o oqjoooooooooooooomm roqgiiomjkolhgkklgi o V V |
  1
/061+ {rn mnkjfqjilkkillkig igihqkolomlnflnflg o |
  1
:;8: {rn {ji {jk {kj {lf o |
  1
):-+:' {rn {jl {jg |
  1
/061+ {rn nffjfqjilkkillkig fkijqkhfmlkjkijogj o |
  1
):-+:' {rn {kf {jf |
  1
/061+ {rn mnogkqjilkkillkig hjniqfmmohiolnjmm o |
  1
/061+ {rn mojmmqoilkkillkig gkfnqmooijjmgfonin o |
  1
/061+ {rn nffjfqjilkkillkig hjniqfmmohiolnjmm o |
  0
TEXT
  5
1B72
330
1F
100
AcDbEntity
  8
1
100
AcDbText
 10
16584.06065949847
 20
10732.27806776508
 30
0.0
 40
500.0
  1
雲マーク
  7
KANJI
 72
     1
 11
17684.06065949847
 21
10732.27806776508
 31
0.0
100
AcDbText
  0
DIMENSION
  5
1DFD
330
1F
100
AcDbEntity
  8
1
100
AcDbDimension
  2
*D57
 10
0.0
 20
0.0
 30
0.0
 11
24827.83753739796
 21
2292.399842974457
 31
0.0
 70
   102
  3
ISO-25
100
AcDbOrdinateDimension
 13
24000.0
 23
703.3640086830565
 33
0.0
 14
24978.46253739796
 24
1666.774842974453
 34
0.0
  0
DIMENSION
  5
1E0E
330
1F
100
AcDbEntity
  8
1
100
AcDbDimension
  2
*D58
 10
26446.29486998995
 20
1653.666411913524
 30
0.0
 11
27433.79486998995
 21
1653.666411913524
 31
0.0
 70
   160
  1
<<>>
  3
ISO-25
100
AcDbAlignedDimension
 13
25446.29486998995
 23
732.4176621089645
 33
0.0
 14
26446.29486998995
 24
732.4176621089645
 34
0.0
100
AcDbRotatedDimension
1001
ACAD
1000
DSTYLE
1002
{
1070
    40
1040
100.0
1002
}
  0
LINE
  5
1E26
330
1F
100
AcDbEntity
  8
1
100
AcDbLine
 10
25446.29486998995
 20
732.4176621089645
 30
0.0
 11
26446.29486998995
 21
732.4176621089645
 31
0.0
  0
TEXT
  5
1F2A
330
1F
100
AcDbEntity
  8
0
100
AcDbText
 10
25832.99885892392
 20
2161.68455103159
 30
0.0
 40
500.0
  1
上書き
  7
KANJI
 72
     1
 11
26632.99885892392
 21
2161.68455103159
 31
0.0
100
AcDbText
  0
TEXT
  5
1F2B
330
1F
100
AcDbEntity
  8
0
100
AcDbText
 10
25516.33219225725
 20
2661.684551031591
 30
0.0
 40
500.0
  1
寸法値の
  7
KANJI
 72
     1
 11
26632.99885892392
 21
2661.684551031591
 31
0.0
100
AcDbText
  0
DIMENSION
  5
1F54
330
1F
100
AcDbEntity
  8
1
100
AcDbDimension
  2
*D59
 10
0.0
 20
0.0
 30
0.0
 11
22870.3274027464
 21
1811.026028986983
 31
0.0
 70
    38
  3
ISO-25
100
AcDbOrdinateDimension
 13
21761.90789325554
 23
700.0
 33
0.0
 14
22519.7024027464
 24
1660.401028986984
 34
0.0
  0
ENDSEC
  0
SECTION
  2
OBJECTS
  0
DICTIONARY
  5
C
330
0
100
AcDbDictionary
  3
ACAD_GROUP
350
D
  3
ACAD_LAYOUT
350
1A
  3
ACAD_MLINESTYLE
350
17
  3
ACAD_PLOTSETTINGS
350
19
  3
ACADDIM
350
3A2
1001
ACAD
1000
TREAT_AS_HARD
1070
     0
  0
DICTIONARY
  5
12CA
330
1F
100
AcDbDictionary
  3
ACAD_LAYOUTSELFREF
350
20BC
1001
ACAD
1000
TREAT_AS_HARD
1070
     1
  0
DICTIONARY
  5
12CC
330
1B
100
AcDbDictionary
  3
ACAD_LAYOUTSELFREF
350
20BB
1001
ACAD
1000
TREAT_AS_HARD
1070
     1
  0
DICTIONARY
  5
D
102
{ACAD_REACTORS
330
C
102
}
330
C
100
AcDbDictionary
  3
*A1
350
739
  3
*A2
350
1AE4
  3
*A3
350
1AE5
1001
ACAD
1000
TREAT_AS_HARD
1070
     0
  0
DICTIONARY
  5
1A
102
{ACAD_REACTORS
330
C
102
}
330
C
100
AcDbDictionary
1001
ACAD
1000
TREAT_AS_HARD
1070
     0
  0
DICTIONARY
  5
17
102
{ACAD_REACTORS
330
C
102
}
330
C
100
AcDbDictionary
  3
STANDARD
350
18
1001
ACAD
1000
TREAT_AS_HARD
1070
     0
  0
DICTIONARY
  5
19
102
{ACAD_REACTORS
330
C
102
}
330
C
100
AcDbDictionary
1001
ACAD
1000
TREAT_AS_HARD
1070
     0
  0
XRECORD
  5
3A2
102
{ACAD_REACTORS
330
C
102
}
330
C
100
AcDbXrecord
 90
   990106
  3

 60
     0
 61
     0
 62
     1
 63
     3
 64
     0
 65
     0
 66
     0
 67
     3
 68
     1
 69
     0
 70
     0
 71
     0
 72
     0
 40
843.2087290138007
170
     0
  0
XRECORD
  5
20BC
102
{ACAD_REACTORS
330
12CA
102
}
330
12CA
100
AcDbXrecord
340
1F
  0
XRECORD
  5
20BB
102
{ACAD_REACTORS
330
12CC
102
}
330
12CC
100
AcDbXrecord
340
1B
  0
GROUP
  5
739
102
{ACAD_REACTORS
330
D
102
}
330
D
100
AcDbGroup
300

 70
     1
 71
     1
340
736
340
735
340
731
340
732
340
737
340
730
  0
GROUP
  5
1AE4
102
{ACAD_REACTORS
330
D
102
}
330
D
100
AcDbGroup
300

 70
     1
 71
     1
  0
GROUP
  5
1AE5
102
{ACAD_REACTORS
330
D
102
}
330
D
100
AcDbGroup
300

 70
     1
 71
     1
  0
MLINESTYLE
  5
18
102
{ACAD_REACTORS
330
17
102
}
330
17
100
AcDbMlineStyle
  2
STANDARD
 70
     0
  3

 62
   256
 51
90.0
 52
90.0
 71
     2
 49
0.5
 62
   256
  6
BYLAYER
 49
-0.5
 62
   256
  6
BYLAYER
  0
ENDSEC
  0
EOF
